Andor - Season 1 (2022) 1080p DSNP WEB-DL Dual Latino-Inglés [Subt. Esp] (Serie de TV. Ciencia Ficción)

Bebesaurio

Well-known member
Miembro del Staff
Moderador
Uploader
Miembro VIP
Registro
12 Mar 2018
Mensajes
1.054
Edad
24

[prebreak][/prebreak]

Sinopsis

Serie precuela de 'Star Wars; Rogue One ', que sigue las aventuras de Cassian Andor durante los años de formación de la Rebelión.


MEDIAINFO
Código:
General
Unique ID                      : 131321428510972218367747530206486925661 (0x62CB964F8574A1F0697888C22923115D)
Format                         : Matroska
Format version                 : Version 4
File size                      : 1.92 GiB
Duration                       : 39 min 10 s
Overall bit rate mode          : Variable
Overall bit rate               : 7 011 kb/s
Encoded date                   : UTC 2022-09-21 20:48:23
Writing application            : mkvmerge v63.0.0 ('Everything') 64-bit
Writing library                : libebml v1.4.2 + libmatroska v1.6.4

Video
ID                             : 1
Format                         : AVC
Format/Info                    : Advanced Video Codec
Format profile                 : High@L4
Format settings                : CABAC / 4 Ref Frames
Format settings, CABAC         : Yes
Format settings, Reference fra : 4 frames
Codec ID                       : V_MPEG4/ISO/AVC
Duration                       : 39 min 10 s
Bit rate mode                  : Variable
Bit rate                       : 5 985 kb/s
Maximum bit rate               : 12.7 Mb/s
Width                          : 1 920 pixels
Height                         : 1 080 pixels
Display aspect ratio           : 16:9
Frame rate mode                : Constant
Frame rate                     : 24.000 FPS
Color space                    : YUV
Chroma subsampling             : 4:2:0
Bit depth                      : 8 bits
Scan type                      : Progressive
Bits/(Pixel*Frame)             : 0.120
Stream size                    : 1.64 GiB (85%)
Language                       : English
Default                        : Yes
Forced                         : No
Color range                    : Limited
Color primaries                : BT.709
Transfer characteristics       : BT.709
Matrix coefficients            : BT.709

Audio #1
ID                             : 2
Format                         : E-AC-3
Format/Info                    : Enhanced AC-3
Commercial name                : Dolby Digital Plus
Codec ID                       : A_EAC3
Duration                       : 39 min 10 s
Bit rate mode                  : Constant
Bit rate                       : 256 kb/s
Channel(s)                     : 6 channels
Channel layout                 : L R C LFE Ls Rs
Sampling rate                  : 48.0 kHz
Frame rate                     : 31.250 FPS (1536 SPF)
Compression mode               : Lossy
Stream size                    : 71.7 MiB (4%)
Title                          : Latino E-AC3 5.1
Language                       : Spanish
Service kind                   : Complete Main
Default                        : Yes
Forced                         : Yes

Audio #2
ID                             : 3
Format                         : E-AC-3 JOC
Format/Info                    : Enhanced AC-3 with Joint Object Coding
Commercial name                : Dolby Digital Plus with Dolby Atmos
Codec ID                       : A_EAC3
Duration                       : 39 min 10 s
Bit rate mode                  : Constant
Bit rate                       : 768 kb/s
Channel(s)                     : 6 channels
Channel layout                 : L R C LFE Ls Rs
Sampling rate                  : 48.0 kHz
Frame rate                     : 31.250 FPS (1536 SPF)
Compression mode               : Lossy
Stream size                    : 215 MiB (11%)
Title                          : Inglés E-AC3 5.1
Language                       : English
Service kind                   : Complete Main
Default                        : Yes
Forced                         : No
Complexity index               : 16
Number of dynamic objects      : 15
Bed channel count              : 1 channel
Bed channel configuration      : LFE

Text #1
ID                             : 4
Format                         : UTF-8
Codec ID                       : S_TEXT/UTF8
Codec ID/Info                  : UTF-8 Plain Text
Duration                       : 15 min 50 s
Bit rate                       : 1 b/s
Count of elements              : 4
Stream size                    : 157 Bytes (0%)
Title                          : Forzados Latino
Language                       : Spanish
Default                        : Yes
Forced                         : Yes

Text #2
ID                             : 5
Format                         : UTF-8
Codec ID                       : S_TEXT/UTF8
Codec ID/Info                  : UTF-8 Plain Text
Duration                       : 37 min 31 s
Bit rate                       : 49 b/s
Count of elements              : 447
Stream size                    : 13.7 KiB (0%)
Title                          : Español (Latinoamericano)
Language                       : Spanish
Default                        : No
Forced                         : No

CAPTURAS





ENLACES VIP



Enlaces de Mega y Google Drive solo disponibles para Miembros VIP

Compra tu Membresía VIP y apoya a Club-HD!

ATENCIÓN! Tenemos TODO el material de Club-HD disponible por Mega y Google Drive, enlaces 100% activos y online hasta la fecha

Llévate tus cuentas Mega PRO III gratis con tu membresía VIP!
Todos los posts vivos con links de Mega y Google Drive.
Todo el material de Club-HD desbloqueado y sin publicidad.

Click Aquí para más información.
ENLACES FREE


Para ver este contenido oculto, debes dar click en una de las siguientes reacciones : Like Like, Love Love, Haha Haha, Wow Wow, Sad Sad, Angry Angry



Ep 01-03
https://shrinke.me/AjJ1b
https://shrx.in/ZdgaH
https://shrinke.me/7lSEY
https://oko.sh/qRzIArSli5
https://cuty.io/3pLHEmpju7JX

Ep 04
https://shrx.in/COKCqag0
https://shrinke.me/LRGCG8L
https://shrinke.me/SZml

Ep 05
https://ckk.ai/43RzXaKTXhp
https://ouo.io/MgfppR
https://shrx.in/M87wzuG
https://shrinke.me/Yac8n

Ep 06
https://shrinke.me/YLQMN
https://shrx.in/riS2Na
https://ckk.ai/hLEpv

Ep 07
https://ouo.io/BOkny5
https://ouo.io/MRBOE7
https://ouo.io/dePC92r

Ep 08
https://ckk.ai/JLSamr
https://exe.io/wz7hpG7
https://shrx.in/w5I8f7y

Ep 09
https://ouo.io/dyWCtV7
https://shrx.in/JA5Wa

Ep 10
https://shrx.in/XkDruUTF
https://ouo.io/U7KyHTW

Ep 11
https://short.pe/HZQD7
https://ckk.ai/CzNn

Ep 11
https://shrx.in/ICrI
https://ckk.ai/kie5Ahj6kLJ
https://ouo.io/WlML22

Ep 12
https://ouo.io/pLiF0lC
https://short.pe/buHhTU
https://ckk.ai/TJT4sDrztT3

CONTRASEÑA
Código:
www.club-hd.com
 

Usuarios Que Están Viendo Este Tema (Total: 1, Miembros: 0, Invitados: 1)

Arriba