Black Widow (2021) 2160p BDRemux Dual Latino-Ingles [Subt. Spa-Eng] (Acción. Aventuras)

Bebesaurio

Novio de Vizard
Miembro del equipo
Moderador
Uploader
Registro
12 Mar 2018
Mensajes
851
Reacciones
25.321
Puntos
93
Edad
22

Reputation:




Sinopsis

Natasha Romanoff, alias Viuda Negra, se enfrenta a los capítulos más oscuros de su historia cuando surge una peligrosa conspiración relacionada con su pasado. Perseguida por una fuerza que no se detendrá ante nada para acabar con ella, Natasha debe lidiar con su historia como espía y con la estela de relaciones destruidas que dejó atrás mucho antes de convertirse en Vengadora.



MEDIAINFO

Código:
G
eneral
Unique ID                      : 251692428766761916158551413437415468285 (0xBD5A32D31B8967DDEAE542783ABEACFD)
Format                         : Matroska
Format version                 : Version 4
File size                      : 53.5 GiB
Duration                       : 2 h 13 min
Overall bit rate mode          : Variable
Overall bit rate               : 57.2 Mb/s
Movie name                     : Black.Widow.2021.UHD
Encoded date                   : UTC 2021-09-10 21:19:02
Writing application            : mkvmerge v59.0.0 ('Shining Star') 64-bit
Writing library                : libebml v1.4.2 + libmatroska v1.6.4

Video
ID                             : 1
ID in the original source medi : 4113 (0x1011)
Format                         : HEVC
Format/Info                    : High Efficiency Video Coding
Format profile                 : Main 10@L5.1@High
HDR format                     : SMPTE ST 2086, HDR10 compatible
Codec ID                       : V_MPEGH/ISO/HEVC
Duration                       : 2 h 13 min
Bit rate                       : 46.2 Mb/s
Width                          : 3 840 pixels
Height                         : 2 160 pixels
Display aspect ratio           : 16:9
Frame rate mode                : Constant
Frame rate                     : 23.976 (24000/1001) FPS
Color space                    : YUV
Chroma subsampling             : 4:2:0 (Type 2)
Bit depth                      : 10 bits
Bits/(Pixel*Frame)             : 0.232
Stream size                    : 43.2 GiB (81%)
Title                          : MPEG-H HEVC Video / 46197 kbps / 2160p / 23.976 fps / 16:9 / Main 10 @ Level 5.1 @ High / 10 bits / HDR10 / BT.2020
Writing library                : ATEME Titan File 3.9.6 (4.9.6.2)        
Language                       : English
Default                        : No
Forced                         : No
Color range                    : Limited
Color primaries                : BT.2020
Transfer characteristics       : PQ
Matrix coefficients            : BT.2020 non-constant
Mastering display color primar : Display P3
Mastering display luminance    : min: 0.0050 cd/m2, max: 1000 cd/m2
Original source medium         : Blu-ray

Audio #1
ID                             : 2
ID in the original source medi : 4352 (0x1100)
Format                         : MLP FBA 16-ch
Format/Info                    : Meridian Lossless Packing FBA with 16-channel presentation
Commercial name                : Dolby TrueHD with Dolby Atmos
Codec ID                       : A_TRUEHD
Duration                       : 2 h 13 min
Bit rate mode                  : Variable
Bit rate                       : 4 284 kb/s
Maximum bit rate               : 7 737 kb/s
Channel(s)                     : 8 channels
Channel layout                 : L R C LFE Ls Rs Lb Rb
Sampling rate                  : 48.0 kHz
Frame rate                     : 1 200.000 FPS (40 SPF)
Bit depth                      : 24 bits
Compression mode               : Lossless
Stream size                    : 4.00 GiB (7%)
Title                          : TrueHD 7.1 Atmos
Language                       : English
Default                        : Yes
Forced                         : No
Original source medium         : Blu-ray
Number of dynamic objects      : 13
Bed channel count              : 1 channel
Bed channel configuration      : LFE

Audio #2
ID                             : 3
Format                         : DTS XLL
Format/Info                    : Digital Theater Systems
Commercial name                : DTS-HD Master Audio
Codec ID                       : A_DTS
Duration                       : 2 h 13 min
Bit rate mode                  : Variable
Bit rate                       : 4 412 kb/s
Channel(s)                     : 8 channels
Channel layout                 : C L R LFE Lb Rb Lss Rss
Sampling rate                  : 48.0 kHz
Frame rate                     : 93.750 FPS (512 SPF)
Bit depth                      : 24 bits
Compression mode               : Lossless
Stream size                    : 4.12 GiB (8%)
Title                          : DTS-HD MA 7.1
Language                       : English
Default                        : No
Forced                         : No

Audio #3
ID                             : 4
ID in the original source medi : 4352 (0x1100)
Format                         : AC-3
Format/Info                    : Audio Coding 3
Commercial name                : Dolby Digital
Codec ID                       : A_AC3
Duration                       : 2 h 13 min
Bit rate mode                  : Constant
Bit rate                       : 640 kb/s
Channel(s)                     : 6 channels
Channel layout                 : L R C LFE Ls Rs
Sampling rate                  : 48.0 kHz
Frame rate                     : 31.250 FPS (1536 SPF)
Compression mode               : Lossy
Stream size                    : 612 MiB (1%)
Title                          : DD 5.1
Language                       : English
Service kind                   : Complete Main
Default                        : No
Forced                         : No
Original source medium         : Blu-ray

Audio #4
ID                             : 5
Format                         : E-AC-3
Format/Info                    : Enhanced AC-3
Commercial name                : Dolby Digital Plus
Format profile                 : Blu-ray Disc
Codec ID                       : A_EAC3
Duration                       : 2 h 13 min
Bit rate mode                  : Constant
Bit rate                       : 1 024 kb/s
Channel(s)                     : 8 channels
Channel layout                 : L R C LFE Ls Rs Lb Rb
Sampling rate                  : 48.0 kHz
Frame rate                     : 31.250 FPS (1536 SPF)
Compression mode               : Lossy
Stream size                    : 980 MiB (2%)
Title                          : Spanish / Dolby Digital Plus Audio / 7.1 / 48 kHz /  1024 kbps
Language                       : Spanish
Service kind                   : Complete Main
Default                        : Yes
Forced                         : No

Audio #5
ID                             : 6
ID in the original source medi : 4355 (0x1103)
Format                         : AC-3
Format/Info                    : Audio Coding 3
Commercial name                : Dolby Digital
Codec ID                       : A_AC3
Duration                       : 2 h 13 min
Bit rate mode                  : Constant
Bit rate                       : 576 kb/s
Channel(s)                     : 6 channels
Channel layout                 : L R C LFE Ls Rs
Sampling rate                  : 48.0 kHz
Frame rate                     : 31.250 FPS (1536 SPF)
Compression mode               : Lossy
Stream size                    : 551 MiB (1%)
Title                          : Spanish / Dolby Digital / AC3 Embedded: 5.1 / 48 kHz / 576 kbps
Language                       : Spanish
Service kind                   : Complete Main
Default                        : No
Forced                         : No
Original source medium         : Blu-ray

Text #1
ID                             : 7
Format                         : UTF-8
Codec ID                       : S_TEXT/UTF8
Codec ID/Info                  : UTF-8 Plain Text
Duration                       : 2 h 12 min
Bit rate                       : 40 b/s
Count of elements              : 1339
Stream size                    : 39.7 KiB (0%)
Title                          : SRT
Language                       : English
Default                        : Yes
Forced                         : No

Text #2
ID                             : 8
ID in the original source medi : 4768 (0x12A0)
Format                         : PGS
Muxing mode                    : zlib
Codec ID                       : S_HDMV/PGS
Codec ID/Info                  : Picture based subtitle format used on BDs/HD-DVDs
Duration                       : 2 h 13 min
Bit rate                       : 32.2 kb/s
Count of elements              : 3294
Stream size                    : 30.7 MiB (0%)
Language                       : English
Default                        : No
Forced                         : No
Original source medium         : Blu-ray

Text #3
ID                             : 9
ID in the original source medi : 4770 (0x12A2)
Format                         : PGS
Muxing mode                    : zlib
Codec ID                       : S_HDMV/PGS
Codec ID/Info                  : Picture based subtitle format used on BDs/HD-DVDs
Duration                       : 2 h 12 min
Bit rate                       : 25.6 kb/s
Count of elements              : 2604
Stream size                    : 24.3 MiB (0%)
Language                       : Spanish
Default                        : No
Forced                         : No
Original source medium         : Blu-ray

Text #4
ID                             : 10
ID in the original source medi : 4772 (0x12A4)
Format                         : PGS
Muxing mode                    : zlib
Codec ID                       : S_HDMV/PGS
Codec ID/Info                  : Picture based subtitle format used on BDs/HD-DVDs
Duration                       : 1 h 49 min
Bit rate                       : 716 b/s
Count of elements              : 74
Stream size                    : 574 KiB (0%)
Title                          : FORCED
Language                       : English
Default                        : No
Forced                         : No
Original source medium         : Blu-ray

Text #5
ID                             : 11
ID in the original source medi : 4774 (0x12A6)
Format                         : PGS
Muxing mode                    : zlib
Codec ID                       : S_HDMV/PGS
Codec ID/Info                  : Picture based subtitle format used on BDs/HD-DVDs
Duration                       : 2 h 0 min
Bit rate                       : 1 072 b/s
Count of elements              : 112
Stream size                    : 948 KiB (0%)
Title                          : FORCED
Language                       : Spanish
Default                        : No
Forced                         : No
Original source medium         : Blu-ray

Menu
00:00:00.000                   : Chapter 01
00:04:55.169                   : Chapter 02
00:13:10.080                   : Chapter 03
00:16:24.566                   : Chapter 04
00:18:41.870                   : Chapter 05
00:21:41.633                   : Chapter 06
00:25:40.747                   : Chapter 07
00:30:06.346                   : Chapter 08
00:39:05.301                   : Chapter 09
00:44:46.058                   : Chapter 10
00:53:25.994                   : Chapter 11
01:01:38.152                   : Chapter 12
01:07:46.270                   : Chapter 13
01:11:40.629                   : Chapter 14
01:17:48.747                   : Chapter 15
01:27:19.192                   : Chapter 16
01:33:33.441                   : Chapter 17
01:37:37.476                   : Chapter 18
01:41:18.655                   : Chapter 19
01:45:37.539                   : Chapter 20
01:51:41.653                   : Chapter 21
01:57:09.105                   : Chapter 22
02:01:59.562                   : Chapter 23
02:04:25.458                   : Chapter 24

CAPTURAS





ENLACES VIP




Enlaces de Mega y Fireload solo disponibles para Miembros VIP

Compra tu Membresía VIP y apoya a Club-HD!

ATENCIÓN! Tenemos TODO el material de Club-HD disponible por Mega y Fireload, enlaces 100% activos y online hasta la fecha

Llévate tus cuentas Mega PRO II gratis con tu membresía VIP!
Todos los posts vivos con links de Mega y Fireload.
Todo el material de Club-HD desbloqueado y sin publicidad.

Click Aquí para más información.
ENLACES FREE



Para ver este contenido oculto, debes dar click en una de las siguientes reacciones : Like Like, Love Love, Haha Haha, Wow Wow, Sad Sad, Angry Angry


Para ver este contenido oculto, debes dar click en una de las siguientes reacciones : Like Like, Love Love, Haha Haha, Wow Wow, Sad Sad, Angry Angry

CONTRASEÑA
Código:
www.club-hd.com
 

Usuarios Que Están Viendo Este Tema (Total: 1, Miembros: 0, Invitados: 1)

Arriba