• Buenos dias amigos del club. Les queremos avisar que ya recuperamos el acceso a las webs de las Membresías VIP y del Paste. Asi que ya pueden comprar sus membresías y descargar todos los estrenos nuevamente.

Danny Phantom: The Complete Series (2004) 480p PMTP Dual Latino-Inglés (Aventuras, Acción)

Rex

Ex Bebe

Moderador
Uploader
Registro
12 Mar 2018
Mensajes
1.330
Reacciones (ptje)
37.762

Danny-Phantom.png


SINOPSIS

Danny Phantom es una serie animada de televisión creada por Butch Hartman (también creador de Los padrinos mágicos) para Nickelodeon, producida por los Estudios Billionfold y distribuida por la compañía Nelvana. El personaje principal, Danny Fenton, echa un vistazo a un portal fantasma creado por sus padres, y por accidente se vuelve mitad humano y mitad fantasma. Ahora Danny tiene que luchar con la ayuda de sus amigos para atrapar a los fantasmas y regresarlos a la zona fantasma, mientras que lucha día a día en el agonizante mundo adolescente.


APORTE EXCLUSIVO PARA MIEMBROS VIP.



Está es la mejor calidad que se pudo obtener del canal Paramount. :apreton-de-manos:


MEDIAINFO
Código:
Format                                   : MPEG-4
Format profile                           : Base Media
Codec ID                                 : isom (isom/dby1/iso2/avc1/mp41)
File size                                : 291 MiB
Duration                                 : 24 min 5 s
Overall bit rate mode                    : Constante
Overall bit rate                         : 1 690 kb/s
Frame rate                               : 23,976 FPS
Collection                               : Danny Phantom
Track name                               : Mystery Meat
Genre                                    : Kids
Description                              : Life as a high school freshman can be tough - but even tougher when you're trying to control your new superhero ghost powers.
Recorded date                            : 2019
Writing application                      : Lavf60.3.100
Cover                                    : Yes
Part_ID                                  : 1

Vídeo
ID                                       : 1
Format                                   : AVC
Format/Info                              : Advanced Video Codec
Format profile                           : Main@L3
Format settings                          : CABAC / 4 Ref Frames
Format settings, CABAC                   : Sí
Format settings, Reference frames        : 4 fotogramas
Codec ID                                 : avc1
Codec ID/Info                            : Advanced Video Coding
Duration                                 : 24 min 5 s
Bit rate mode                            : Constante
Bit rate                                 : 1 235 kb/s
Nominal bit rate                         : 2 000 kb/s
Width                                    : 640 píxeles
Height                                   : 480 píxeles
Display aspect ratio                     : 4:3
Frame rate mode                          : Constante
Frame rate                               : 23,976 (24000/1001) FPS
Color space                              : YUV
Chroma subsampling                       : 4:2:0
Bit depth                                : 8 bits
Scan type                                : Progresivo
Bits/(Pixel*Frame)                       : 0.168
Stream size                              : 213 MiB (73%)
Color range                              : Limited
Color primaries                          : BT.709
Transfer characteristics                 : BT.709
Matrix coefficients                      : BT.709
Menus                                    : 5
Codec configuration box                  : avcC

Audio #1
ID                                       : 3
Format                                   : E-AC-3
Format/Info                              : Enhanced AC-3
Commercial name                          : Dolby Digital Plus
Codec ID                                 : ec-3
Duration                                 : 24 min 5 s
Bit rate mode                            : Constante
Bit rate                                 : 224 kb/s
Channel(s)                               : 2 canales
Channel layout                           : L R
Sampling rate                            : 48,0 kHz
Frame rate                               : 31,250 FPS (1536 SPF)
Compression mode                         : Con pérdida
Stream size                              : 38,6 MiB (13%)
Language                                 : Inglés
Service kind                             : Complete Main
Default                                  : Sí
Alternate group                          : 2
Menus                                    : 5

Audio #2
ID                                       : 4
Format                                   : E-AC-3
Format/Info                              : Enhanced AC-3
Commercial name                          : Dolby Digital Plus
Codec ID                                 : ec-3
Duration                                 : 24 min 5 s
Bit rate mode                            : Constante
Bit rate                                 : 224 kb/s
Channel(s)                               : 2 canales
Channel layout                           : L R
Sampling rate                            : 48,0 kHz
Frame rate                               : 31,250 FPS (1536 SPF)
Compression mode                         : Con pérdida
Stream size                              : 38,6 MiB (13%)
Language                                 : Español
Service kind                             : Complete Main
Default                                  : Sí
Alternate group                          : 3
Menus                                    : 5

Menú
ID                                       : 5
Format                                   : Timed Text
Codec ID                                 : text
Duration                                 : 16 min 47 s
Language                                 : Inglés
Menu For                                 : 1,3,4
00:00:00.000                             : 1. Jack tries to inspire Danny and his friends to hunt ghosts
00:01:41.000                             : 2. Opening Credits
00:02:36.000                             : 3. Danny's phantom power grows
00:12:06.000                             : 4. Danny puts his power to good use
00:16:47.000                             : 5. Danny tests the Fenton thermos

CAPTURAS

vlcsnap-2023-09-15-13h17m53s349.png

vlcsnap-2023-09-15-13h18m01s057.png

vlcsnap-2023-09-15-13h18m41s694.png

vlcsnap-2023-09-15-13h18m54s672.png

vlcsnap-2023-09-15-13h19m03s009.png



ENLACES VIP

MEGA-BANNER.png

1 Link MKV

Tenemos TODO el material de Club-HD disponible por Mega, enlaces 100% activos y online hasta la fecha

Llévate tus cuentas Mega PRO III gratis con tu membresía VIP!
Todos los posts vivos con links de Mega.
Todo el material de Club-HD desbloqueado y sin publicidad.

Obtén más información sobre nuestras Membresías VIP

UBTOBOX.png

1 Link MKV

Tenemos TODO el material de Club-HD disponible por Mega, enlaces 100% activos y online hasta la fecha

Llévate tus cuentas Mega PRO III gratis con tu membresía VIP!
Todos los posts vivos con links de Mega.
Todo el material de Club-HD desbloqueado y sin publicidad.

Obtén más información sobre nuestras Membresías VIP

CONTRASEÑA
Código:
www.club-hd.com
 
Gracias por el aporte.

Según TheTVDB falta el capítulo 1x20, ¿lo puedes revisar por favor?
 
Volver