EN EMISION El Señor de los Cielos: S09E01~E90 (2024) 1080p PCOK WEB-DL Latino [Subt.Esp] (Serie de TV. Drama. Romance)

LuchoO

責任者

Moderador
Uploader
Registro
15 Ago 2015
Mensajes
1.940
Reacciones (ptje)
29.011

cover.png



FICHA.TECNICA.png

Captura.JPG


SINOPSIS.PNG



Serie de TV. (Actualidad). Temporadas 09. Basada en la vida de Amado Carrillo Fuentes, un narcotraficante que se convirtió en el jefe del Cartel de Juárez en los años 90. Amado Carrillo era apodado como "el Señor de los Cielos", debido a la gran flota de aviones que utilizaba para transportar la droga. Se le describe como el criminal más poderoso de su época, ocupando el lugar dejado por Pablo Escobar Gaviria; y uno de los más ricos de la historia, con una fortuna estimada en 25.000 millones de dólares.

En la serie, el protagonista es Aurelio Casillas (Rafael Amaya), y se relata su odisea por convertirse en el narcotraficante más grande de México. Para lograrlo, deberá sortear toda suerte de obstáculos, en un torbellino de emociones, acción, pasiones, lujos, intrigas, traiciones y vértigo. Pero tras sus pasos se encuentra Marco Mejía (Gabriel Porras), un agente de policía obsesionado con capturarlo. Tras la aparición de su fotografía en la prensa, Casillas decide hacerse una arriesgada cirugía plástica para cambiar su rostro y desaparecer sin dejar huella, aunque pone en juego la vida de su amada Ximena (Ximena Herrera) y de sus hijos.


6.8



TRAILER.PNG



CAPTURAS.PNG


ESDLC.0001.jpeg


ESDLC.0002.jpeg


ESDLC.0003.jpeg


ESDLC.0004.jpeg



MEDIAINFO.PNG

General
Complete name : El Señor de los Cielos S09E01 (2024) PCOK WEB-DL 1080p Latino.mkv
Format : Matroska
Format version : Version 4
File size : 3.16 GiB
Duration : 57 min 9 s
Overall bit rate : 7 911 kb/s
Movie name : The Beast Awakens
Description : Fabricar fentanilo en México tiene consecuencias.
Encoded date : UTC 2024-02-14 16:16:55
Writing application : mkvmerge v68.0.0 ('The Curtain') 64-bit
Writing library : libebml v1.4.2 + libmatroska v1.6.4
Cover : Yes
Attachments : cover.png

Video
ID : 1
Format : AVC
Format/Info : Advanced Video Codec
Format profile : High@L4
Format settings : CABAC / 3 Ref Frames
Format settings, CABAC : Yes
Format settings, Reference frames : 3 frames
Codec ID : V_MPEG4/ISO/AVC
Duration : 57 min 9 s
Bit rate : 7 814 kb/s
Width : 1 920 pixels
Height : 1 080 pixels
Display aspect ratio : 16:9
Frame rate mode : Constant
Frame rate : 29.970 (30000/1001) FPS
Original frame rate : 29.970 (29970/1000) FPS
Color space : YUV
Chroma subsampling : 4:2:0
Bit depth : 8 bits
Scan type : Progressive
Bits/(Pixel*Frame) : 0.126
Stream size : 3.12 GiB (99%)
Writing library : x264 core 164 r3095 baee400
Encoding settings : cabac=1 / ref=3 / deblock=1:0:0 / analyse=0x3:0x113 / me=umh / subme=7 / psy=1 / psy_rd=0.00:0.00 / mixed_ref=1 / me_range=16 / chroma_me=1 / trellis=1 / 8x8dct=1 / cqm=0 / deadzone=21,11 / fast_pskip=1 / chroma_qp_offset=0 / threads=34 / lookahead_threads=5 / sliced_threads=0 / nr=0 / decimate=1 / interlaced=0 / bluray_compat=0 / stitchable=1 / constrained_intra=0 / bframes=2 / b_pyramid=0 / b_adapt=1 / b_bias=0 / direct=1 / weightb=1 / open_gop=0 / weightp=2 / keyint=60 / keyint_min=6 / scenecut=0 / intra_refresh=0 / rc_lookahead=60 / rc=2pass / mbtree=1 / bitrate=7814 / ratetol=1.0 / qcomp=0.60 / qpmin=10 / qpmax=51 / qpstep=4 / cplxblur=20.0 / qblur=0.5 / vbv_maxrate=11729 / vbv_bufsize=11729 / nal_hrd=none / filler=0 / ip_ratio=1.41 / aq=1:1.00
Default : Yes
Forced : No
Color range : Limited
Color primaries : BT.709
Transfer characteristics : BT.709
Matrix coefficients : BT.709

Audio
ID : 2
Format : AAC LC
Format/Info : Advanced Audio Codec Low Complexity
Codec ID : A_AAC-2
Duration : 57 min 9 s
Bit rate : 96.0 kb/s
Channel(s) : 2 channels
Channel layout : L R
Sampling rate : 48.0 kHz
Frame rate : 46.875 FPS (1024 SPF)
Compression mode : Lossy
Stream size : 39.4 MiB (1%)
Title : Spanish
Language : Spanish
Default : Yes
Forced : No

Text #1
ID : 3
Format : UTF-8
Codec ID : S_TEXT/UTF8
Codec ID/Info : UTF-8 Plain Text
Duration : 56 min 49 s
Bit rate : 65 b/s
Count of elements : 987
Stream size : 27.3 KiB (0%)
Title : spanish
Language : Spanish
Default : Yes
Forced : No

Text #2
ID : 4
Format : UTF-8
Codec ID : S_TEXT/UTF8
Codec ID/Info : UTF-8 Plain Text
Duration : 56 min 53 s
Bit rate : 50 b/s
Count of elements : 721
Stream size : 20.9 KiB (0%)
Title : english
Language : English
Default : No
Forced : No


DESCARGA.PNG




⭐ 1 LINK MKV VIP ⭐

Mega.png

Tenemos TODO el material de Club-HD disponible por Mega, enlaces 100% activos y online hasta la fecha

Llévate tus cuentas Mega PRO III gratis con tu membresía VIP!
Todos los posts vivos con links de Mega.
Todo el material de Club-HD desbloqueado y sin publicidad.

Obtén más información sobre nuestras Membresías VIP


LINKS MEGA FREE

[S09-E01~E84] Subiendo ...
¡Click aquí para descargar desde Mega Free!

 
Última edición:
Pensé que estaba al día los capítulos xD
 
  • Wow
Reacciones: Max
Hola Hemo.

Ya lo actualizarán, por eso este aporte lleva el cartelito de "En emision" :pulgar2:

Te invocamos @LuchoO

Call Me 90S GIF
 
Muy abandonado este post xD sigo esperando capitulo al dia xD
 
  • Wow
Reacciones: Max
---ACTUALIZADO---
 
  • Me Encanta
Reacciones: Max
Volver