• Este aviso va dirigido a todos los nuevos miembros recien llegados a Club-HD. Les recordamos que la direccion URL de este sitio web es , asi que deben acceder únicamente por esta URL. Sean todos bienvenidos al Club!

Full House: The Complete First Season (1987) 1080p NF WEB-DL Dual Latino-Inglés [Subt. Esp] (Serie de TV. Comedia)

FabianJoel

Active member
Colaborador
Uploader
Registrado
13 Nov 2015
Mensajes
74
Puntos de reacción
149
Puntos
33








Título original
Full House (TV Series)
Año
1987
Duración
20 min.
País
Estados Unidos
Dirección
Jeff Franklin (Creador), Joel Zwick, John Tracy, Bill Foster, Jeff Franklin, Tom Rickard, Peter Baldwin, Rich Correll, John Bowab, Lee Shallat Chemel, Howard Storm, James O'Keefe, Jack Shea, Don Barnhart, Tom Trbovich, Don Van Atta, Russ Petranto, Steve Zuckerman, Bill Petty
Guion
Jeff Franklin, Dennis Rinsler, Marc Warren, Ellen Guylas, Leonard Ripps, Kim Weiskopf, Tom Burkhard, Rob Dames, Tom Amundsen, Chuck Tatham, Jamie Tatham, Russell Marcus, Boyd Hale, Adam I. Lapidus, Carolyn Omine, Mark Fink, Bob Fraser, Stacey Hur, Leslie Ray, David Steven Simon, Elias Davis
Música
Mark Vogel, Jesse Frederick, Bennett Salvay
Fotografía
J. Bruce Nielsen, Alan Walker, Gary W. Scott
Reparto
John Stamos, Dave Coulier, Candace Cameron Bure, Jodie Sweetin, Mary-Kate Olsen, Ashley Olsen, Bob Saget, Lori Loughlin, Andrea Barber, Blake Tuomy-Wilhoit, Dylan Tuomy-Wilhoit, Scott Weinger, Gail Edwards, Tahj Mowry, Jurnee Smollett-Bell, Daniel Renteria, Kevin Renteria, Miko Hughes, Gary Griffin, Blake McIver Ewing, Marla Sokoloff, Yvonne Wilder, John Aprea, Richard Paul
Productora
Emitida por American Broadcasting Company (ABC)
Género
Serie de TV. Comedia | Sitcom familiar. Familia



Serie de TV (1987-1995). 8 temporadas. 192 episodios. Tras la muerte de su esposa en un accidente de coche, Danny Tanner, un periodista de San Francisco, tiene que sacar adelante a sus tres hijas pequeñas: D.J., Stephanie y Michelle. Su cuñado Jesse y su mejor amigo, Joey, le ayudarán en la diaria y difícil tarea de criar, cuidar y educar a las niñas. (FILMAFFINITY)










Código:
Format                      : Matroska
Format version              : Version 4
File size                   : 1 022 MiB
Duration                    : 24 min 31 s
Overall bit rate mode       : Variable
Overall bit rate            : 5 823 kb/s
Encoded date                : UTC 2020-06-21 12:58:22
Writing application         : mkvmerge v47.0.0 ('Black Flag') 64-bit
Writing library             : libebml v1.3.10 + libmatroska v1.5.2

Video
ID                          : 1
Format                      : AVC
Format/Info                 : Advanced Video Codec
Format profile              : High@L4
Format settings             : CABAC / 4 Ref Frames
Format settings, CABAC      : Yes
Format settings, Reference  : 4 frames
Codec ID                    : V_MPEG4/ISO/AVC
Duration                    : 24 min 31 s
Bit rate mode               : Variable
Bit rate                    : 5 503 kb/s
Maximum bit rate            : 20.0 Mb/s
Width                       : 1 440 pixels
Height                      : 1 080 pixels
Display aspect ratio        : 4:3
Frame rate mode             : Constant
Frame rate                  : 23.976 (24000/1001) FPS
Color space                 : YUV
Chroma subsampling          : 4:2:0
Bit depth                   : 8 bits
Scan type                   : Progressive
Bits/(Pixel*Frame)          : 0.148
Stream size                 : 965 MiB (94%)
Writing library             : x264 core 148 r2715 7e75228
Default                     : Yes
Forced                      : No

Audio #1
ID                          : 2
Format                      : AC-3
Format/Info                 : Audio Coding 3
Commercial name             : Dolby Digital
Codec ID                    : A_AC3
Duration                    : 24 min 31 s
Bit rate mode               : Constant
Bit rate                    : 192 kb/s
Channel(s)                  : 2 channels
Channel layout              : L R
Sampling rate               : 48.0 kHz
Frame rate                  : 31.250 FPS (1536 SPF)
Compression mode            : Lossy
Stream size                 : 33.7 MiB (3%)
Title                       : Español
Language                    : Spanish
Service kind                : Complete Main
Default                     : Yes
Forced                      : No

Audio #2
ID                          : 3
Format                      : E-AC-3
Format/Info                 : Enhanced AC-3
Commercial name             : Dolby Digital Plus
Codec ID                    : A_EAC3
Duration                    : 24 min 31 s
Bit rate mode               : Constant
Bit rate                    : 128 kb/s
Channel(s)                  : 2 channels
Channel layout              : L R
Sampling rate               : 48.0 kHz
Frame rate                  : 31.250 FPS (1536 SPF)
Compression mode            : Lossy
Stream size                 : 22.5 MiB (2%)
Title                       : Inglés
Language                    : English
Service kind                : Complete Main
Default                     : No
Forced                      : No

Text #1
ID                          : 4
Format                      : UTF-8
Codec ID                    : S_TEXT/UTF8
Codec ID/Info               : UTF-8 Plain Text
Duration                    : 23 min 45 s
Bit rate                    : 64 b/s
Count of elements           : 345
Stream size                 : 11.3 KiB (0%)
Title                       : Español
Language                    : Spanish
Default                     : Yes
Forced                      : No

Text #2
ID                          : 5
Format                      : UTF-8
Codec ID                    : S_TEXT/UTF8
Codec ID/Info               : UTF-8 Plain Text
Duration                    : 24 min 7 s
Bit rate                    : 81 b/s
Count of elements           : 782
Stream size                 : 14.3 KiB (0%)
Title                       : SDH
Language                    : English
Default                     : No
Forced                      : No






Enlaces de Mega y Google Drive solo disponibles para Miembros VIP

Compra tu Membresía VIP y apoya a Club-HD!

ATENCIÓN! Tenemos TODO el material de Club-HD disponible por Mega y Google Drive, enlaces 100% activos y online hasta la fecha

Llévate tus cuentas Mega PRO II gratis con tu membresía VIP!
Todos los posts vivos con links de Mega y Google Drive.
Todo el material de Club-HD desbloqueado y sin publicidad.

Click Aquí para más información.

Enlaces de Mega y Google Drive solo disponibles para Miembros VIP

Compra tu Membresía VIP y apoya a Club-HD!

ATENCIÓN! Tenemos TODO el material de Club-HD disponible por Mega y Google Drive, enlaces 100% activos y online hasta la fecha

Llévate tus cuentas Mega PRO II gratis con tu membresía VIP!
Todos los posts vivos con links de Mega y Google Drive.
Todo el material de Club-HD desbloqueado y sin publicidad.

Click Aquí para más información.

Para ver este contenido oculto, debes dar click en una de las siguientes reacciones: Like Like, Love Love, Haha Haha, Wow Wow, Sad Sad, Angry Angry

Para ver este contenido oculto, debes dar click en una de las siguientes reacciones: Like Like, Love Love, Haha Haha, Wow Wow, Sad Sad, Angry Angry

Para ver este contenido oculto, debes dar click en una de las siguientes reacciones: Like Like, Love Love, Haha Haha, Wow Wow, Sad Sad, Angry Angry


www.club-hd.com

 
Última edición:

FUNKSW

Active member
Miembro VIP
Registrado
12 Dic 2015
Mensajes
366
Puntos de reacción
156
Puntos
43
Edad
42
Loco, sólo una pequeña observación sobre éste post. Debería de incluir la leyenda: Aporte Exclusivo de Club-HD

Porque en realidad dudo mucho que alguien más tenga éste material, con ésta calidad y en audio latino :oops:

De paso, muchisimas gracias :love:
 

cripp

Well-known member
Registrado
27 Ago 2012
Mensajes
8,059
Puntos de reacción
463
Puntos
113
Gracias por compartir
 

ERRE

Well-known member
Registrado
28 Ago 2012
Mensajes
2,213
Puntos de reacción
167
Puntos
63
Gracias...😄
 

Usuarios Que Están Viendo Este Tema (Total: 1, Miembros: 0, Invitados: 1)

Arriba