• Este aviso va dirigido a todos los nuevos miembros recien llegados a Club-HD. Les recordamos que la direccion URL de este sitio web es , asi que deben acceder únicamente por esta URL. Sean todos bienvenidos al Club!

Gladiator (2000) EXTENDED 2160p 4k UHD HDR Dual Latino-Inglés [Subt. Esp] (Acción. Aventuras)

Brady

Moderador
Miembro del Staff
Moderador
Uploader
Registrado
1 Jun 2016
Mensajes
2,589
Puntos de reacción
40,292
Puntos
113
Edad
24




Título Original: Gladiator
Año: 2000
Duración: 150 min.
País:
United States
Director: Ridley Scott
Guion: David Franzoni, John Logan, William Nicholson
Reparto: Russell Crowe, Joaquin Phoenix, Connie Nielsen, Oliver Reed, Richard Harris, Ralf Moeller, Derek Jacobi, Djimon Hounsou, David Schofield, John Shrapnel, Spencer Treat Clark, Tomas Arana, David Hemmings, Tommy Flanagan, Sven-Ole Thorsen, Tony Curran, Giorgio Cantarini, Omid Djalili, Giannina Facio
Productora: Coproducción Estados Unidos-Reino Unido; Universal Pictures / DreamWorks SKG / Scott Free Productions / Mill Film / C&L / Red Wagon Entertainment
Género: Acción. Aventuras. Drama | Antigua Roma. Esclavitud. Venganza. Cine épico​

SINOPSIS
En el año 180, el Imperio Romano domina todo el mundo conocido. Tras una gran victoria sobre los bárbaros del norte, el anciano emperador Marco Aurelio (Richard Harris) decide transferir el poder a Máximo (Russell Crowe), bravo general de sus ejércitos y hombre de inquebrantable lealtad al imperio. Pero su hijo Cómodo (Joaquin Phoenix), que aspiraba al trono, no lo acepta y trata de asesinar a Máximo.

TRAILER

Datos Técnicos
Video:
MPEGH HEVC / 2160p / High Profile 5.1 / 21.0 mbps

Audio:
Español Latino / AC3 5.1/ 640 kbps / 48kHz / Bluray
Inglés / AC3 5.1 / 640 kbps / 48kHz / Bluray

Subs:
Español Latino / SubRip / Bluray 4k
Español Latino Forzados / SubRip / Bluray 4k
Español Latino / Sup / Bluray 4k
Español Latino Forzados / Sup / Bluray 4k
Inglés / Sup / Bluray 4k


Un agradecimiento muy especial para nuestro Colaborador clasaase Por la Sincronización de ambos audios, tanto el latino de Bluray, como el Inglés del Bluray 4k, & por las Sincronizaciones de los Subtitulos SRT & PGS


Código:
General
Unique ID                                : 236378767467282107874272055822821799481 (0xB1D4E507AB141AA83AF5799A30A6B639)
Format                                   : Matroska
Format version                           : Version 4 / Version 2
File size                                : 26.6 GiB
Duration                                 : 2 h 50 min
Overall bit rate                         : 22.3 Mb/s
Encoded date                             : UTC 2018-07-31 02:06:07
Writing application                      : mkvmerge v20.0.0 ('I Am The Sun') 64-bit
Writing library                          : libebml v1.3.5   libmatroska v1.4.8
Uploader                                 : Brady
Web                                      : www.club-hd.com

Video
ID                                       : 1
Format                                   : HEVC
Format/Info                              : High Efficiency Video Coding
Format profile                           : Main 10@L5.1@High
Codec ID                                 : V_MPEGH/ISO/HEVC
Duration                                 : 2 h 50 min
Bit rate                                 : 21.0 Mb/s
Width                                    : 3 840 pixels
Height                                   : 1 600 pixels
Display aspect ratio                     : 2.40:1
Frame rate mode                          : Constant
Frame rate                               : 23.976 (24000/1001) FPS
Color space                              : YUV
Chroma subsampling                       : 4:2:0 (Type 2)
Bit depth                                : 10 bits
Bits/(Pixel*Frame)                       : 0.142
Stream size                              : 25.0 GiB (94%)
Writing library                          : x265 2.7 340-aa9102400f24:[Windows][GCC 7.3.0][64 bit] 10bit
Encoding settings                        : cpuid=1176575 / frame-threads=5 / numa-pools=32 / wpp / no-pmode / no-pme / no-psnr / no-ssim / log-level=2 / input-csp=1 / input-res=3840x1600 / interlace=0 / total-frames=245910 / level-idc=51 / high-tier=1 / uhd-bd=0 / ref=4 / no-allow-non-conformance / repeat-headers / annexb / aud / hrd / info / hash=0 / no-temporal-layers / no-open-gop / min-keyint=24 / keyint=240 / gop-lookahead=0 / bframes=4 / b-adapt=2 / b-pyramid / bframe-bias=0 / rc-lookahead=25 / lookahead-slices=4 / scenecut=40 / radl=0 / no-intra-refresh / ctu=64 / min-cu-size=8 / rect / no-amp / max-tu-size=32 / tu-inter-depth=1 / tu-intra-depth=1 / limit-tu=0 / rdoq-level=2 / dynamic-rd=0.00 / no-ssim-rd / signhide / no-tskip / nr-intra=0 / nr-inter=0 / no-constrained-intra / no-strong-intra-smoothing / max-merge=3 / limit-refs=3 / limit-modes / me=3 / subme=3 / merange=57 / temporal-mvp / weightp / no-weightb / no-analyze-src-pics / deblock=-3:-3 / no-sao / no-sao-non-deblock / rd=4 / no-early-skip / rskip / no-fast-intra / no-tskip-fast / no-cu-lossless / no-b-intra / no-splitrd-skip / rdpenalty=0 / psy-rd=2.00 / psy-rdoq=1.00 / no-rd-refine / no-lossless / cbqpoffs=0 / crqpoffs=0 / rc=crf / crf=17.0 / qcomp=0.60 / qpstep=4 / stats-write=0 / stats-read=0 / vbv-maxrate=160000 / vbv-bufsize=160000 / vbv-init=0.9 / crf-max=0.0 / crf-min=0.0 / ipratio=1.40 / pbratio=1.30 / aq-mode=1 / aq-strength=1.00 / cutree / zone-count=0 / no-strict-cbr / qg-size=32 / no-rc-grain / qpmax=69 / qpmin=0 / no-const-vbv / sar=1 / overscan=0 / videoformat=5 / range=0 / colorprim=9 / transfer=16 / colormatrix=9 / chromaloc=1 / chromaloc-top=2 / chromaloc-bottom=2 / display-window=0 / master-display=G(13250,34500)B(7500,3000)R(34000,16000)WP(15635,16450)L(10000000,50) / max-cll=1000,497 / min-luma=0 / max-luma=1023 / log2-max-poc-lsb=8 / vui-timing-info / vui-hrd-info / slices=1 / no-opt-qp-pps / no-opt-ref-list-length-pps / no-multi-pass-opt-rps / scenecut-bias=0.05 / no-opt-cu-delta-qp / no-aq-motion / hdr / hdr-opt / no-dhdr10-opt / no-idr-recovery-sei / analysis-reuse-level=5 / scale-factor=0 / refine-intra=0 / refine-inter=0 / refine-mv=0 / no-limit-sao / ctu-info=0 / no-lowpass-dct / refine-mv-type=0 / copy-pic=1 / max-ausize-factor=1.0 / no-dynamic-refine / no-single-sei
Language                                 : English
Default                                  : Yes
Forced                                   : No
Color range                              : Limited
Color primaries                          : BT.2020
Transfer characteristics                 : PQ
Matrix coefficients                      : BT.2020 non-constant
Mastering display color primaries        : Display P3
Mastering display luminance              : min: 0.0050 cd/m2, max: 1000 cd/m2
Maximum Content Light Level              : 1000 cd/m2
Maximum Frame-Average Light Level        : 497 cd/m2

Audio #1
ID                                       : 2
Format                                   : AC-3
Format/Info                              : Audio Coding 3
Codec ID                                 : A_AC3
Duration                                 : 2 h 50 min
Bit rate mode                            : Constant
Bit rate                                 : 640 kb/s
Channel(s)                               : 6 channels
Channel positions                        : Front: L C R, Side: L R, LFE
Sampling rate                            : 48.0 kHz
Frame rate                               : 31.250 FPS (1536 SPF)
Bit depth                                : 16 bits
Compression mode                         : Lossy
Stream size                              : 783 MiB (3%)
Title                                    : Latino AC3 5.1 640 kbps Bluray
Language                                 : Latin
Service kind                             : Complete Main
Default                                  : Yes
Forced                                   : No

Audio #2
ID                                       : 3
Format                                   : AC-3
Format/Info                              : Audio Coding 3
Codec ID                                 : A_AC3
Duration                                 : 2 h 50 min
Bit rate mode                            : Constant
Bit rate                                 : 640 kb/s
Channel(s)                               : 6 channels
Channel positions                        : Front: L C R, Side: L R, LFE
Sampling rate                            : 48.0 kHz
Frame rate                               : 31.250 FPS (1536 SPF)
Bit depth                                : 16 bits
Compression mode                         : Lossy
Stream size                              : 783 MiB (3%)
Title                                    : Ingles AC3 5.1 640 kbps Bluray
Language                                 : English
Service kind                             : Complete Main
Default                                  : No
Forced                                   : No

Text #1
ID                                       : 4
Format                                   : UTF-8
Codec ID                                 : S_TEXT/UTF8
Codec ID/Info                            : UTF-8 Plain Text
Duration                                 : 2 h 45 min
Bit rate                                 : 35 b/s
Count of elements                        : 1338
Stream size                              : 42.3 KiB (0%)
Title                                    : Latino
Language                                 : Latin
Default                                  : No
Forced                                   : No

Text #2
ID                                       : 5
Format                                   : UTF-8
Codec ID                                 : S_TEXT/UTF8
Codec ID/Info                            : UTF-8 Plain Text
Duration                                 : 2 h 45 min
Bit rate                                 : 0 b/s
Count of elements                        : 12
Stream size                              : 499 Bytes (0%)
Title                                    : Forzados
Language                                 : Latin
Default                                  : Yes
Forced                                   : No

Text #3
ID                                       : 6
Format                                   : PGS
Muxing mode                              : zlib
Codec ID                                 : S_HDMV/PGS
Codec ID/Info                            : Picture based subtitle format used on BDs/HD-DVDs
Duration                                 : 2 h 45 min
Bit rate                                 : 23.6 kb/s
Count of elements                        : 2676
Stream size                              : 27.8 MiB (0%)
Title                                    : Latino
Language                                 : Latin
Default                                  : No
Forced                                   : No

Text #4
ID                                       : 7
Format                                   : PGS
Muxing mode                              : zlib
Codec ID                                 : S_HDMV/PGS
Codec ID/Info                            : Picture based subtitle format used on BDs/HD-DVDs
Duration                                 : 2 h 45 min
Bit rate                                 : 308 b/s
Count of elements                        : 24
Stream size                              : 373 KiB (0%)
Title                                    : Forzados
Language                                 : Latin
Default                                  : No
Forced                                   : No

Text #5
ID                                       : 8
Format                                   : PGS
Muxing mode                              : zlib
Codec ID                                 : S_HDMV/PGS
Codec ID/Info                            : Picture based subtitle format used on BDs/HD-DVDs
Duration                                 : 2 h 42 min
Bit rate                                 : 24.0 kb/s
Count of elements                        : 2909
Stream size                              : 27.8 MiB (0%)
Title                                    : Ingles
Language                                 : English
Default                                  : No
Forced                                   : No











DESCARGA

Links Intercambiables​


Enlaces de Mega y Google Drive solo disponibles para Miembros VIP

Compra tu Membresía VIP y apoya a Club-HD!

ATENCIÓN! Tenemos TODO el material de Club-HD disponible por Mega y Google Drive, enlaces 100% activos y online hasta la fecha

Llévate tus cuentas Mega PRO II gratis con tu membresía VIP!
Todos los posts vivos con links de Mega y Google Drive.
Todo el material de Club-HD desbloqueado y sin publicidad.

Click Aquí para más información.

Enlaces de Mega y Google Drive solo disponibles para Miembros VIP

Compra tu Membresía VIP y apoya a Club-HD!

ATENCIÓN! Tenemos TODO el material de Club-HD disponible por Mega y Google Drive, enlaces 100% activos y online hasta la fecha

Llévate tus cuentas Mega PRO II gratis con tu membresía VIP!
Todos los posts vivos con links de Mega y Google Drive.
Todo el material de Club-HD desbloqueado y sin publicidad.

Click Aquí para más información.

Para ver este contenido oculto, debes dar click en una de las siguientes reacciones: Like Like, Love Love, Haha Haha, Wow Wow, Sad Sad, Angry Angry

Para ver este contenido oculto, debes dar click en una de las siguientes reacciones: Like Like, Love Love, Haha Haha, Wow Wow, Sad Sad, Angry Angry


Código:
www.club-hd.com
 

Josiba

Well-known member
Registrado
27 Ago 2012
Mensajes
5,751
Puntos de reacción
266
Puntos
83
Edad
51

Genji

Active member
Registrado
2 Sep 2012
Mensajes
614
Puntos de reacción
28
Puntos
28
¡¡¡Excelente aporte, mil gracias!!! :dplgar:
Desc_g_
 

OutworK

Active member
Miembro VIP
Registrado
8 Dic 2017
Mensajes
147
Puntos de reacción
38
Puntos
28
Excelente, muchas gracias y más por ser versión extendida!
 

xl5

Well-known member
Registrado
1 Sep 2012
Mensajes
1,223
Puntos de reacción
65
Puntos
48

josefo08

Well-known member
Registrado
14 Abr 2014
Mensajes
1,221
Puntos de reacción
42
Puntos
48
Edad
49

crack20

𝙀𝙡 𝙐𝙡𝙩𝙧𝙖 𝙄𝙣𝙨𝙩𝙞𝙣𝙩𝙤
Colaborador
Registrado
1 Jul 2015
Mensajes
664
Puntos de reacción
3,247
Puntos
93
Edad
27
Ubicación
惑星ベジータ
Sitio web
latinouhd.com
Una película para coleccionistas sin dudas, gracias :dplgar:
 

kempes54

Well-known member
Miembro VIP
Registrado
28 Ago 2012
Mensajes
727
Puntos de reacción
301
Puntos
63
Muy Bien Brady!!
 

Usuarios Que Están Viendo Este Tema (Total: 1, Miembros: 0, Invitados: 1)

Arriba