Godzilla x Kong: The New Empire (2024) 1080p AMZN WEB-DL Latino [Subt. Lat] (Ciencia ficción. Acción)

Rex

Ex Bebe

Moderador
Uploader
Registro
12 Mar 2018
Mensajes
1.296
Reacciones (ptje)
36.658
GxK.png


rSINOPSIS.png


Una aventura cinematográfica completamente nueva, que enfrentará al todopoderoso Kong y al temible Godzilla contra una colosal amenaza desconocida escondida dentro de nuestro mundo. La nueva y épica película profundizará en las historias de estos titanes, sus orígenes y los misterios de Isla Calavera y más allá, mientras descubre la batalla mítica que ayudó a forjar a estos seres extraordinarios y los unió a la humanidad para siempre.

rMEDIAINFO.png


Código:
Video
ID                                       : 1
Format                                   : AVC
Format/Info                              : Advanced Video Codec
Format profile                           : High@L4
Format settings                          : CABAC / 4 Ref Frames
Format settings, CABAC                   : Yes
Format settings, Reference frames        : 4 frames
Codec ID                                 : V_MPEG4/ISO/AVC
Duration                                 : 1 h 55 min
Bit rate mode                            : Constant
Bit rate                                 : 9 217 kb/s
Nominal bit rate                         : 10 000 kb/s
Width                                    : 1 920 pixels
Height                                   : 800 pixels
Display aspect ratio                     : 2.40:1
Frame rate mode                          : Constant
Frame rate                               : 23.976 (24000/1001) FPS
Color space                              : YUV
Chroma subsampling                       : 4:2:0
Bit depth                                : 8 bits
Scan type                                : Progressive
Bits/(Pixel*Frame)                       : 0.250
Stream size                              : 7.44 GiB (88%)
Language                                 : English
Default                                  : Yes
Forced                                   : No
Color range                              : Limited
Color primaries                          : BT.709
Transfer characteristics                 : BT.709
Matrix coefficients                      : BT.709

Audio #1
ID                                       : 2
Format                                   : E-AC-3
Format/Info                              : Enhanced AC-3
Commercial name                          : Dolby Digital Plus
Codec ID                                 : A_EAC3
Duration                                 : 1 h 55 min
Bit rate mode                            : Constant
Bit rate                                 : 640 kb/s
Channel(s)                               : 6 channels
Channel layout                           : L R C LFE Ls Rs
Sampling rate                            : 48.0 kHz
Frame rate                               : 31.250 FPS (1536 SPF)
Compression mode                         : Lossy
Stream size                              : 529 MiB (6%)
Title                                    : Latino E-AC3 5.1
Language                                 : Spanish
Service kind                             : Complete Main
Default                                  : Yes
Forced                                   : No
Dialog Normalization                     : -31 dB
compr                                    : -0.28 dB
dialnorm_Average                         : -31 dB
dialnorm_Minimum                         : -31 dB
dialnorm_Maximum                         : -31 dB

Audio #2
ID                                       : 3
Format                                   : E-AC-3
Format/Info                              : Enhanced AC-3
Commercial name                          : Dolby Digital Plus
Codec ID                                 : A_EAC3
Duration                                 : 1 h 55 min
Bit rate mode                            : Constant
Bit rate                                 : 640 kb/s
Channel(s)                               : 6 channels
Channel layout                           : L R C LFE Ls Rs
Sampling rate                            : 48.0 kHz
Frame rate                               : 31.250 FPS (1536 SPF)
Compression mode                         : Lossy
Stream size                              : 529 MiB (6%)
Title                                    : Inglés E-AC3 5.1
Language                                 : English
Service kind                             : Complete Main
Default                                  : No
Forced                                   : No
Dialog Normalization                     : -31 dB
compr                                    : -0.28 dB
dialnorm_Average                         : -31 dB
dialnorm_Minimum                         : -31 dB
dialnorm_Maximum                         : -31 dB

Text #1
ID                                       : 4
Format                                   : UTF-8
Codec ID                                 : S_TEXT/UTF8
Codec ID/Info                            : UTF-8 Plain Text
Duration                                 : 1 h 43 min
Bit rate                                 : 2 b/s
Frame rate                               : 0.014 FPS
Count of elements                        : 86
Stream size                              : 2.25 KiB (0%)
Title                                    : Forzados
Language                                 : Spanish
Default                                  : Yes
Forced                                   : Yes

Text #2
ID                                       : 5
Format                                   : UTF-8
Codec ID                                 : S_TEXT/UTF8
Codec ID/Info                            : UTF-8 Plain Text
Duration                                 : 1 h 53 min
Bit rate                                 : 32 b/s
Frame rate                               : 0.114 FPS
Count of elements                        : 776
Stream size                              : 27.3 KiB (0%)
Title                                    : Español (Latinoamerica)
Language                                 : Spanish
Default                                  : No
Forced                                   : No

Text #3
ID                                       : 6
Format                                   : UTF-8
Codec ID                                 : S_TEXT/UTF8
Codec ID/Info                            : UTF-8 Plain Text
Duration                                 : 1 h 54 min
Bit rate                                 : 50 b/s
Frame rate                               : 0.241 FPS
Count of elements                        : 1656
Stream size                              : 42.6 KiB (0%)
Title                                    : English
Language                                 : English
Default                                  : No
Forced                                   : No

rCAPTURAS.png


Godzilla%20x%20Kong%20The%20New%20Empire%20(2024)%201080p%20AMZN%20WEB-DL.mkv_snapshot_00.00.10.010.jpg

Godzilla%20x%20Kong%20The%20New%20Empire%20(2024)%201080p%20AMZN%20WEB-DL.mkv_snapshot_00.03.38.218.jpg

Godzilla%20x%20Kong%20The%20New%20Empire%20(2024)%201080p%20AMZN%20WEB-DL.mkv_snapshot_00.05.56.356.jpg

Godzilla%20x%20Kong%20The%20New%20Empire%20(2024)%201080p%20AMZN%20WEB-DL.mkv_snapshot_01.05.45.942.jpg

Godzilla%20x%20Kong%20The%20New%20Empire%20(2024)%201080p%20AMZN%20WEB-DL.mkv_snapshot_01.17.44.660.jpg



rDESCARGA.png


hostMEGAvip.png

Tenemos TODO el material de Club-HD disponible por Mega, enlaces 100% activos y online hasta la fecha

Llévate tus cuentas Mega PRO III gratis con tu membresía VIP!
Todos los posts vivos con links de Mega.
Todo el material de Club-HD desbloqueado y sin publicidad.

Obtén más información sobre nuestras Membresías VIP


hostDOODRIVE.png

Click aquí para descargar desde DooDrive


host1CLOUDFILE.png

Click aquí para descargar desde 1CloudFile


GOFILE2.png

Click aquí para descargar desde Gofile


rCONTRASENA.png


www.club-hd.com
 
La estaba esperando como agua en mayo (Dicho de mi país El Salvador) ;) Gracias Rex
 
Volver