• Este aviso va dirigido a todos los nuevos miembros recien llegados a Club-HD. Les recordamos que la direccion URL de este sitio web es , asi que deben acceder únicamente por esta URL. Sean todos bienvenidos al Club!

Goosebumps 2: Haunted Halloween (2018) 2160p 4k UHD HDR Dual Latino-Inglés [Subt. Esp] (Fantástico. Comedia)

Brady

Moderador
Miembro del Staff
Moderador
Uploader
Registrado
1 Jun 2016
Mensajes
2,589
Puntos de reacción
40,384
Puntos
113
Edad
24





Título Original: Goosebumps 2: Haunted Halloween
Año: 2018
Duración: 90 min.
País:
United States
Director: Ari Sandel
Guion: Darren Lemke, Rob Lieber (Libros: R.L. Stine)
Reparto: Madison Iseman, Wendi McLendon-Covey, Jeremy Ray Taylor, Chris Parnell, Ken Jeong, Shari Headley, Peyton Wich, Tyler Silva, Courtney Lauren Cummings, Caleel Harris, Kendrick Cross, Sydney Bullock, Drew Scheid, Deja Dee, Jessi Goei, Ben O'Brien, Jason Looney, Brick Jackson, Serene Lee-Sng, Shaun McMillan, John Thelan Reece, Jack Black
Productora: Columbia Pictures / Sony Pictures Animation / Original Film / Scholastic Entertainment / Silvertongue Films. Distribuida por Columbia Pictures
Género: Fantástico. Comedia. Aventuras. Terror | Comedia de terror. Monstruos. Secuela​



La noche de Halloween cobra vida en esta nueva comedia de aventuras basada en la serie de libros escrita por R.L. Stine, que lleva vendidos más de 400 millones de ejemplares en todo el mundo. Secuela de "Pesadillas" (2015).




Datos Técnicos
Video:
MPEGH HEVC / 2160p / High Profile 5.1 / 19.3 mbps

Audio:
Español Latino / AC3 5.1 / 640 kbps / 48kHz / Bluray 4k
Inglés / TrueHD/Atmos 7.1 / 4317/7593 kbps / 48kHz / Bluray 4k
Inglés / AC3 5.1 / 640 kbps / 48kHz / Bluray 4k

Subs:
Español Latino / SubRip / Bluray 4k
Español Latino Forzados / SubRip / Bluray 4k
Español Latino / Sup / Bluray 4k
Español Latino Forzados / Sup / Bluray 4k
Inglés / Sup / Bluray 4k

Código:
General
Unique ID                                : 317168045603933319560921352598724010090 (0xEE9C57F8FF2C2DFFDD8CF4ECA8F3E06A)
Format                                   : Matroska
Format version                           : Version 4
File size                                : 15.7 GiB
Duration                                 : 1 h 29 min
Overall bit rate mode                    : Variable
Overall bit rate                         : 25.0 Mb/s
Encoded date                             : UTC 2019-01-17 06:36:03
Writing application                      : mkvmerge v27.0.0 ('Metropolis') 64-bit
Writing library                          : libebml v1.3.6 + libmatroska v1.4.9
Uploader                                 : Brady
Web                                      : www.club-hd.com

Video
ID                                       : 1
Format                                   : HEVC
Format/Info                              : High Efficiency Video Coding
Commercial name                          : HDR10
Format profile                           : Main 10@L5.1@High
Codec ID                                 : V_MPEGH/ISO/HEVC
Duration                                 : 1 h 29 min
Bit rate                                 : 19.3 Mb/s
Width                                    : 3 840 pixels
Height                                   : 1 606 pixels
Display aspect ratio                     : 2.40:1
Frame rate mode                          : Constant
Frame rate                               : 23.976 (24000/1001) FPS
Color space                              : YUV
Chroma subsampling                       : 4:2:0 (Type 2)
Bit depth                                : 10 bits
Bits/(Pixel*Frame)                       : 0.131
Stream size                              : 12.1 GiB (77%)
Writing library                          : x265 2.9+8-27d8424c799d:[Windows][MSVC 1900][64 bit] 10bit
Encoding settings                        : cpuid=1176575 / frame-threads=5 / numa-pools=36 / wpp / no-pmode / no-pme / no-psnr / no-ssim / log-level=2 / input-csp=1 / input-res=3840x1606 / interlace=0 / total-frames=129192 / level-idc=51 / high-tier=1 / uhd-bd=0 / ref=4 / no-allow-non-conformance / repeat-headers / annexb / aud / hrd / info / hash=0 / no-temporal-layers / no-open-gop / min-keyint=24 / keyint=240 / gop-lookahead=0 / bframes=4 / b-adapt=2 / b-pyramid / bframe-bias=0 / rc-lookahead=25 / lookahead-slices=4 / scenecut=40 / radl=0 / no-intra-refresh / ctu=64 / min-cu-size=8 / rect / no-amp / max-tu-size=32 / tu-inter-depth=1 / tu-intra-depth=1 / limit-tu=0 / rdoq-level=2 / dynamic-rd=0.00 / no-ssim-rd / signhide / no-tskip / nr-intra=0 / nr-inter=0 / no-constrained-intra / no-strong-intra-smoothing / max-merge=3 / limit-refs=3 / limit-modes / me=3 / subme=3 / merange=57 / temporal-mvp / weightp / no-weightb / no-analyze-src-pics / deblock=-3:-3 / no-sao / no-sao-non-deblock / rd=4 / no-early-skip / rskip / no-fast-intra / no-tskip-fast / no-cu-lossless / no-b-intra / no-splitrd-skip / rdpenalty=0 / psy-rd=2.00 / psy-rdoq=1.00 / no-rd-refine / no-lossless / cbqpoffs=0 / crqpoffs=0 / rc=crf / crf=17.0 / qcomp=0.60 / qpstep=4 / stats-write=0 / stats-read=0 / vbv-maxrate=160000 / vbv-bufsize=160000 / vbv-init=0.9 / crf-max=0.0 / crf-min=0.0 / ipratio=1.40 / pbratio=1.30 / aq-mode=1 / aq-strength=1.00 / cutree / zone-count=0 / no-strict-cbr / qg-size=32 / no-rc-grain / qpmax=69 / qpmin=0 / no-const-vbv / sar=1 / overscan=0 / videoformat=5 / range=0 / colorprim=9 / transfer=16 / colormatrix=9 / chromaloc=1 / chromaloc-top=2 / chromaloc-bottom=2 / display-window=0 / master-display=G(13250,34500)B(7500,3000)R(34000,16000)WP(15635,16450)L(40000000,50) / max-cll=981,979 / min-luma=0 / max-luma=1023 / log2-max-poc-lsb=8 / vui-timing-info / vui-hrd-info / slices=1 / no-opt-qp-pps / no-opt-ref-list-length-pps / no-multi-pass-opt-rps / scenecut-bias=0.05 / no-opt-cu-delta-qp / no-aq-motion / hdr / hdr-opt / no-dhdr10-opt / no-idr-recovery-sei / analysis-reuse-level=5 / scale-factor=0 / refine-intra=0 / refine-inter=0 / refine-mv=0 / no-limit-sao / ctu-info=0 / no-lowpass-dct / refine-mv-type=0 / copy-pic=1 / max-ausize-factor=1.0 / no-dynamic-refine / no-single-sei
Language                                 : English
Default                                  : Yes
Forced                                   : No
Color range                              : Limited
Color primaries                          : BT.2020
Transfer characteristics                 : PQ
Matrix coefficients                      : BT.2020 non-constant
Mastering display color primaries        : Display P3
Mastering display luminance              : min: 0.0050 cd/m2, max: 4000 cd/m2
Maximum Content Light Level              : 981 cd/m2
Maximum Frame-Average Light Level        : 979 cd/m2

Audio #1
ID                                       : 2
Format                                   : AC-3
Format/Info                              : Audio Coding 3
Commercial name                          : Dolby Digital
Codec ID                                 : A_AC3
Duration                                 : 1 h 29 min
Bit rate mode                            : Constant
Bit rate                                 : 640 kb/s
Channel(s)                               : 6 channels
Channel layout                           : L R C LFE Ls Rs
Sampling rate                            : 48.0 kHz
Frame rate                               : 31.250 FPS (1536 SPF)
Bit depth                                : 16 bits
Compression mode                         : Lossy
Stream size                              : 411 MiB (3%)
Title                                    : Latino AC3 5.1 640 kbps Bluray 4k
Language                                 : Latin
Service kind                             : Complete Main
Default                                  : Yes
Forced                                   : No

Audio #2
ID                                       : 3
Format                                   : MLP FBA 16-ch
Format/Info                              : Meridian Lossless Packing FBA with 16-channel presentation
Commercial name                          : Dolby TrueHD with Dolby Atmos
Codec ID                                 : A_TRUEHD
Duration                                 : 1 h 29 min
Bit rate mode                            : Variable
Bit rate                                 : 4 317 kb/s
Maximum bit rate                         : 7 593 kb/s
Channel(s)                               : 8 channels
Channel layout                           : L R C LFE Ls Rs Lb Rb
Sampling rate                            : 48.0 kHz
Frame rate                               : 1 200.000 FPS (40 SPF)
Compression mode                         : Lossless
Stream size                              : 2.71 GiB (17%)
Title                                    : Ingles TrueHD/Atmos 7.1 4317/7593 kbps Bluray 4k
Language                                 : English
Default                                  : No
Forced                                   : No
Number of dynamic objects                : 11
Bed channel count                        : 1 channel
Bed channel configuration                : LFE

Audio #3
ID                                       : 4
Format                                   : AC-3
Format/Info                              : Audio Coding 3
Commercial name                          : Dolby Digital
Codec ID                                 : A_AC3
Duration                                 : 1 h 29 min
Bit rate mode                            : Constant
Bit rate                                 : 640 kb/s
Channel(s)                               : 6 channels
Channel layout                           : L R C LFE Ls Rs
Sampling rate                            : 48.0 kHz
Frame rate                               : 31.250 FPS (1536 SPF)
Bit depth                                : 16 bits
Compression mode                         : Lossy
Stream size                              : 411 MiB (3%)
Title                                    : Ingles AC3 5.1 640 kbps Bluray 4k
Language                                 : English
Service kind                             : Complete Main
Default                                  : No
Forced                                   : No

Text #1
ID                                       : 5
Format                                   : UTF-8
Codec ID                                 : S_TEXT/UTF8
Codec ID/Info                            : UTF-8 Plain Text
Duration                                 : 1 h 28 min
Bit rate                                 : 54 b/s
Count of elements                        : 1119
Stream size                              : 35.1 KiB (0%)
Title                                    : Latino
Language                                 : Latin
Default                                  : No
Forced                                   : No

Text #2
ID                                       : 6
Format                                   : UTF-8
Codec ID                                 : S_TEXT/UTF8
Codec ID/Info                            : UTF-8 Plain Text
Duration                                 : 1 h 28 min
Bit rate                                 : 0 b/s
Count of elements                        : 6
Stream size                              : 222 Bytes (0%)
Title                                    : Forzados
Language                                 : Latin
Default                                  : Yes
Forced                                   : No

Text #3
ID                                       : 7
Format                                   : PGS
Muxing mode                              : zlib
Codec ID                                 : S_HDMV/PGS
Codec ID/Info                            : Picture based subtitle format used on BDs/HD-DVDs
Duration                                 : 1 h 28 min
Bit rate                                 : 32.5 kb/s
Count of elements                        : 2243
Stream size                              : 20.6 MiB (0%)
Title                                    : Latino
Language                                 : Latin
Default                                  : No
Forced                                   : No

Text #4
ID                                       : 8
Format                                   : PGS
Muxing mode                              : zlib
Codec ID                                 : S_HDMV/PGS
Codec ID/Info                            : Picture based subtitle format used on BDs/HD-DVDs
Duration                                 : 1 h 28 min
Bit rate                                 : 242 b/s
Count of elements                        : 12
Stream size                              : 157 KiB (0%)
Title                                    : Forzados
Language                                 : Latin
Default                                  : No
Forced                                   : No

Text #5
ID                                       : 9
Format                                   : PGS
Muxing mode                              : zlib
Codec ID                                 : S_HDMV/PGS
Codec ID/Info                            : Picture based subtitle format used on BDs/HD-DVDs
Duration                                 : 1 h 27 min
Bit rate                                 : 34.5 kb/s
Count of elements                        : 2179
Stream size                              : 21.6 MiB (0%)
Title                                    : Ingles
Language                                 : English
Default                                  : No
Forced                                   : No













Links Intercambiables​


Enlaces de Mega y Google Drive solo disponibles para Miembros VIP

Compra tu Membresía VIP y apoya a Club-HD!

ATENCIÓN! Tenemos TODO el material de Club-HD disponible por Mega y Google Drive, enlaces 100% activos y online hasta la fecha

Llévate tus cuentas Mega PRO II gratis con tu membresía VIP!
Todos los posts vivos con links de Mega y Google Drive.
Todo el material de Club-HD desbloqueado y sin publicidad.

Click Aquí para más información.

Enlaces de Mega y Google Drive solo disponibles para Miembros VIP

Compra tu Membresía VIP y apoya a Club-HD!

ATENCIÓN! Tenemos TODO el material de Club-HD disponible por Mega y Google Drive, enlaces 100% activos y online hasta la fecha

Llévate tus cuentas Mega PRO II gratis con tu membresía VIP!
Todos los posts vivos con links de Mega y Google Drive.
Todo el material de Club-HD desbloqueado y sin publicidad.

Click Aquí para más información.

Para ver este contenido oculto, debes dar click en una de las siguientes reacciones: Like Like, Love Love, Haha Haha, Wow Wow, Sad Sad, Angry Angry

Para ver este contenido oculto, debes dar click en una de las siguientes reacciones: Like Like, Love Love, Haha Haha, Wow Wow, Sad Sad, Angry Angry

Para ver este contenido oculto, debes dar click en una de las siguientes reacciones: Like Like, Love Love, Haha Haha, Wow Wow, Sad Sad, Angry Angry


Código:
www.club-hd.com
 

cripp

Well-known member
Registrado
27 Ago 2012
Mensajes
8,128
Puntos de reacción
481
Puntos
113
Gracias por compartir
 

Vicure

Well-known member
Miembro VIP
Registrado
27 Ago 2012
Mensajes
1,750
Puntos de reacción
52
Puntos
48

Usuarios Que Están Viendo Este Tema (Total: 1, Miembros: 0, Invitados: 1)

Quien Leyó Este Tema (Total Miembros: 1)

Arriba