Hanna S03 (2021) 1080p AMZN WEB-DL Dual Latino-Inglés [Subt.Esp] (Drama. Acción)

Tr3vor

Well-known member
Uploader
Colaborador
Registro
17 May 2018
Mensajes
1.270
Reacciones
12.987
Puntos
113
Edad
32

Reputation:






En la temporada 3 seguimos a Hanna en su intento de acabar con Utrax, la siniestra organización que la creó, con ayuda de la exagente rebelde de la CIA Marissa Wiegler. La historia atraviesa Europa creciendo hasta llegar a su cénit cuando Hanna y Marissa descubren la horrible verdad oculta tras la operación, y también quién estaba detrás de ella en realidad.


MEDIAINFO
Código:
Format                      : Matroska
Format version              : Version 4
File size                   : 2.83 GiB
Duration                    : 53 min 24 s
Overall bit rate            : 7 594 kb/s
Encoded date                : UTC 2021-11-24 07:47:19
Writing application         : mkvmerge v58.0.0 ('Supper's Ready') 32-bit
Writing library             : libebml v1.4.2 + libmatroska v1.6.4

Video
ID                          : 1
Format                      : AVC
Format/Info                 : Advanced Video Codec
Format profile              : High@L4
Format settings             : CABAC / 4 Ref Frames
Format settings, CABAC      : Yes
Format settings, Reference  : 4 frames
Codec ID                    : V_MPEG4/ISO/AVC
Duration                    : 53 min 24 s
Bit rate mode               : Constant
Bit rate                    : 6 310 kb/s
Nominal bit rate            : 10 000 kb/s
Width                       : 1 920 pixels
Height                      : 1 080 pixels
Display aspect ratio        : 16:9
Frame rate mode             : Constant
Frame rate                  : 23.976 (24000/1001) FPS
Color space                 : YUV
Chroma subsampling          : 4:2:0
Bit depth                   : 8 bits
Scan type                   : Progressive
Bits/(Pixel*Frame)          : 0.127
Stream size                 : 2.35 GiB (83%)
Default                     : Yes
Forced                      : No
Color range                 : Limited
Color primaries             : BT.709
Transfer characteristics    : BT.709
Matrix coefficients         : BT.709

Audio #1
ID                          : 2
Format                      : E-AC-3
Format/Info                 : Enhanced AC-3
Commercial name             : Dolby Digital Plus
Codec ID                    : A_EAC3
Duration                    : 53 min 24 s
Bit rate mode               : Constant
Bit rate                    : 640 kb/s
Channel(s)                  : 6 channels
Channel layout              : L R C LFE Ls Rs
Sampling rate               : 48.0 kHz
Frame rate                  : 31.250 FPS (1536 SPF)
Compression mode            : Lossy
Stream size                 : 244 MiB (8%)
Title                       : English
Language                    : English
Service kind                : Complete Main
Default                     : Yes
Forced                      : No

Audio #2
ID                          : 3
Format                      : E-AC-3
Format/Info                 : Enhanced AC-3
Commercial name             : Dolby Digital Plus
Codec ID                    : A_EAC3
Duration                    : 53 min 24 s
Bit rate mode               : Constant
Bit rate                    : 640 kb/s
Channel(s)                  : 6 channels
Channel layout              : L R C LFE Ls Rs
Sampling rate               : 48.0 kHz
Frame rate                  : 31.250 FPS (1536 SPF)
Compression mode            : Lossy
Stream size                 : 244 MiB (8%)
Title                       : Spanish
Language                    : Spanish
Service kind                : Complete Main
Default                     : No
Forced                      : No

Text #1
ID                          : 4
Format                      : UTF-8
Codec ID                    : S_TEXT/UTF8
Codec ID/Info               : UTF-8 Plain Text
Duration                    : 42 min 55 s
Bit rate                    : 2 b/s
Count of elements           : 39
Stream size                 : 885 Bytes (0%)
Title                       : English [Forced]
Language                    : English
Default                     : No
Forced                      : Yes

Text #2
ID                          : 5
Format                      : UTF-8
Codec ID                    : S_TEXT/UTF8
Codec ID/Info               : UTF-8 Plain Text
Duration                    : 52 min 12 s
Bit rate                    : 34 b/s
Count of elements           : 540
Stream size                 : 13.2 KiB (0%)
Title                       : English [SDH]
Language                    : English
Default                     : No
Forced                      : No

Text #3
ID                          : 6
Format                      : UTF-8
Codec ID                    : S_TEXT/UTF8
Codec ID/Info               : UTF-8 Plain Text
Duration                    : 45 min 17 s
Bit rate                    : 3 b/s
Count of elements           : 44
Stream size                 : 1.18 KiB (0%)
Title                       : Castilian [Forced]
Language                    : Spanish
Default                     : No
Forced                      : Yes

Text #4
ID                          : 7
Format                      : UTF-8
Codec ID                    : S_TEXT/UTF8
Codec ID/Info               : UTF-8 Plain Text
Duration                    : 52 min 5 s
Bit rate                    : 26 b/s
Count of elements           : 410
Stream size                 : 10.3 KiB (0%)
Title                       : Castilian [Full]
Language                    : Spanish
Default                     : No
Forced                      : No

Text #5
ID                          : 8
Format                      : UTF-8
Codec ID                    : S_TEXT/UTF8
Codec ID/Info               : UTF-8 Plain Text
Duration                    : 45 min 17 s
Bit rate                    : 3 b/s
Count of elements           : 44
Stream size                 : 1.08 KiB (0%)
Title                       : Spanish [Forced]
Language                    : Spanish
Default                     : No
Forced                      : Yes

Text #6
ID                          : 9
Format                      : UTF-8
Codec ID                    : S_TEXT/UTF8
Codec ID/Info               : UTF-8 Plain Text
Duration                    : 52 min 5 s
Bit rate                    : 26 b/s
Count of elements           : 412
Stream size                 : 9.97 KiB (0%)
Title                       : Spanish [Full]
Language                    : Spanish
Default                     : No
Forced                      : No

Menu
00:00:00.000                : Amazon Original
00:00:05.000                : Scene 2
00:01:30.000                : Title Sequence
00:01:33.000                : Scene 4
00:03:34.000                : Scene 5
00:05:09.000                : Scene 6
00:08:21.000                : Scene 7
00:11:59.000                : Scene 8
00:16:01.000                : Scene 9
00:18:59.000                : Scene 10
00:25:13.000                : Scene 11
00:27:24.000                : Scene 12
00:31:14.000                : Scene 13
00:39:02.000                : Scene 14
00:43:27.000                : Scene 15
00:46:01.000                : Scene 16
00:51:00.000                : End Credits









Resolución de video: 1920x1080 (AVC, High@L4)
Formato de audio: EAC3 640 kb/s 5.1 (Español latino), EAC3 640 kb/s 5.1 (Inglés)
Formato de subtítulos: SubRip (.srt) (Completos & Forzados)
Lista de audio: Latino e inglés
Fuente: Prime Video





Enlaces de Mega y Fireload solo disponibles para Miembros VIP

Compra tu Membresía VIP y apoya a Club-HD!

ATENCIÓN! Tenemos TODO el material de Club-HD disponible por Mega y Fireload, enlaces 100% activos y online hasta la fecha

Llévate tus cuentas Mega PRO II gratis con tu membresía VIP!
Todos los posts vivos con links de Mega y Fireload.
Todo el material de Club-HD desbloqueado y sin publicidad.

Click Aquí para más información.


Para ver este contenido oculto, debes dar click en una de las siguientes reacciones : Like Like, Love Love, Haha Haha, Wow Wow, Sad Sad, Angry Angry
 
Última edición:

Tr3vor

Well-known member
Uploader
Colaborador
Registro
17 May 2018
Mensajes
1.270
Reacciones
12.987
Puntos
113
Edad
32

Reputation:

ultimo capitulo esta terminandose de subir
 

Tr3vor

Well-known member
Uploader
Colaborador
Registro
17 May 2018
Mensajes
1.270
Reacciones
12.987
Puntos
113
Edad
32

Reputation:

Subida toda ma temporada
 

cripp

Well-known member
Registro
27 Ago 2012
Mensajes
9.683
Reacciones
845
Puntos
113

Reputation:

Gracias por compartir
 

Usuarios Que Están Viendo Este Tema (Total: 1, Miembros: 0, Invitados: 1)

Arriba