• Este aviso va dirigido a todos los nuevos miembros recien llegados a Club-HD. Les recordamos que la direccion URL de este sitio web es , asi que deben acceder únicamente por esta URL. Sean todos bienvenidos al Club!

Harry Potter and the Deathly Hallows: Part II (2011) [Open Matte] 1080p AMZN WEB-DL Dual Latino-Inglés [Subt. Esp]

Flaco

Well-known member
Miembro del Staff
Moderador
Uploader
Registrado
25 May 2015
Mensajes
593
Puntos de reacción
2,783
Puntos
93
Ubicación
Lima, Perú





Título original: Harry Potter and the Deathly Hallows: Part II
Año: 2011
Duración: 130 min.
País:
Reino Unido
Dirección: David Yates
Guion: Steve Kloves (Novela: J.K. Rowling)
Música: Alexandre Desplat
Fotografía: Eduardo Serra
Reparto: Daniel Radcliffe, Emma Watson, Rupert Grint, Alan Rickman, Ralph Fiennes, Helena Bonham Carter, Michael Gambon, Jason Isaacs, Maggie Smith, David Thewlis, Julie Walters, Robbie Coltrane, Gary Oldman, Kelly MacDonald, Helen McCrory, John Hurt, Natalia Tena, Ciarán Hinds, Jim Broadbent, Emma Thompson, Bonnie Wright, Matthew Lewis, Tom Felton, Evanna Lynch, Warwick Davis, Clémence Poésy, Miriam Margolyes, Gemma Jones, David Bradley, Geraldine Somerville, Adrian Rawlins, George Harris, James Phelps, Oliver Phelps, Mark Williams, Jessie Cave, Katie Leung, Devon Murray, Afshan Azad, Sean Biggerstaff, Dave Legeno, Domhnall Gleeson, Chris Rankin, Nick Moran
Productora: Warner Bros., Heyday Films
Género: Fantástico. Aventuras. Drama | Secuela. Magia. Young Adult. 3-D. Cine épico
Premios:
2011: Oscars: 3 nominaciones técnicas: efectos visuales, dirección artística y maquillaje
2011: Critics Choice Awards: Mejor sonido y mejor maquillaje. 4 nominaciones
2011: Premios BAFTA: Mejores efectos especiales visuales. 4 nominaciones
2011: National Board of Review (NBR): Top 10 - Mejores películas del año
2011: Sindicato de Actores (SAG): Mejores especialistas de acción (Largometraje)

Harry Potter and the Deathly Hallows: Part II (2011)





El final ha llegado. Harry, Hermione y Ron tendrán que recuperar la espada de Gryffindor para encontrar y destruir los últimos horrocruxes. Mientras tanto, Lord Voldemort está a punto de apoderarse por completo de Hogwarts y de conseguir su objetivo: matar a Harry Potter. La única esperanza de Harry es encontrar los horrocruxes antes de que Voldemort lo encuentre a él. Buscando pistas, descubre una antigua y olvidada historia: la leyenda de las reliquias de la muerte, que podría dar al malvado Lord el poder definitivo. Pero el futuro de Harry está escrito desde que nació e incluye una misión para la que se ha estado preparando desde que llegó a Hogwarts: la batalla final contra Voldemort.​


































Código:
General
Complete name                            : Harry Potter and the Deathly Hallows Part II (2011) [Open Matte] 1080p AMZN WEB-DL Dual Latino-Inglés [Subt. Esp].mkv
Format                                   : Matroska
Format version                           : Version 4
File size                                : 9.98 GiB
Duration                                 : 2 h 10 min
Overall bit rate mode                    : Variable
Overall bit rate                         : 10.9 Mb/s
Encoded date                             : UTC 2020-07-31 21:06:22
Writing application                      : mkvmerge v48.0.0 ('Fortress Around Your Heart') 64-bit
Writing library                          : libebml v1.4.0 + libmatroska v1.6.0

Video
ID                                       : 1
Format                                   : AVC
Format/Info                              : Advanced Video Codec
Format profile                           : High@L4
Format settings                          : CABAC / 4 Ref Frames
Format settings, CABAC                   : Yes
Format settings, Reference frames        : 4 frames
Codec ID                                 : V_MPEG4/ISO/AVC
Duration                                 : 2 h 10 min
Bit rate mode                            : Variable
Bit rate                                 : 9 657 kb/s
Maximum bit rate                         : 15.0 Mb/s
Width                                    : 1 920 pixels
Height                                   : 1 080 pixels
Display aspect ratio                     : 16:9
Frame rate mode                          : Constant
Frame rate                               : 23.976 (24000/1001) FPS
Color space                              : YUV
Chroma subsampling                       : 4:2:0
Bit depth                                : 8 bits
Scan type                                : Progressive
Bits/(Pixel*Frame)                       : 0.194
Stream size                              : 8.81 GiB (88%)
Title                                    : Harry Potter and the Deathly Hallows Part II (2011) [Open Matte] 1080p AMZN WEB-DL Dual Latino-Inglés [Subt. Esp]
Language                                 : English
Default                                  : Yes
Forced                                   : No
Color range                              : Limited
Color primaries                          : BT.709
Transfer characteristics                 : BT.709
Matrix coefficients                      : BT.709

Audio #1
ID                                       : 2
Format                                   : AC-3
Format/Info                              : Audio Coding 3
Commercial name                          : Dolby Digital
Codec ID                                 : A_AC3
Duration                                 : 2 h 10 min
Bit rate mode                            : Constant
Bit rate                                 : 640 kb/s
Channel(s)                               : 6 channels
Channel layout                           : L R C LFE Ls Rs
Sampling rate                            : 48.0 kHz
Frame rate                               : 31.250 FPS (1536 SPF)
Compression mode                         : Lossy
Stream size                              : 598 MiB (6%)
Title                                    : Español Latino AC3 5.1 - 640 Kbps (Blu-ray)
Language                                 : Spanish
Service kind                             : Complete Main
Default                                  : Yes
Forced                                   : No

Audio #2
ID                                       : 3
Format                                   : E-AC-3
Format/Info                              : Enhanced AC-3
Commercial name                          : Dolby Digital Plus
Codec ID                                 : A_EAC3
Duration                                 : 2 h 10 min
Bit rate mode                            : Constant
Bit rate                                 : 640 kb/s
Channel(s)                               : 6 channels
Channel layout                           : L R C LFE Ls Rs
Sampling rate                            : 48.0 kHz
Frame rate                               : 31.250 FPS (1536 SPF)
Compression mode                         : Lossy
Stream size                              : 598 MiB (6%)
Title                                    : Inglés EAC3 5.1 - 640 Kbps (Original - Amazon)
Language                                 : English
Service kind                             : Complete Main
Default                                  : No
Forced                                   : No

Text #1
ID                                       : 4
Format                                   : UTF-8
Codec ID                                 : S_TEXT/UTF8
Codec ID/Info                            : UTF-8 Plain Text
Duration                                 : 23 min 47 s
Bit rate                                 : 1 b/s
Count of elements                        : 6
Stream size                              : 278 Bytes (0%)
Title                                    : Subtítulo Español Latino Forzado - SRT
Language                                 : Spanish
Default                                  : Yes
Forced                                   : No

Text #2
ID                                       : 5
Format                                   : UTF-8
Codec ID                                 : S_TEXT/UTF8
Codec ID/Info                            : UTF-8 Plain Text
Duration                                 : 1 h 55 min
Bit rate                                 : 33 b/s
Count of elements                        : 929
Stream size                              : 28.1 KiB (0%)
Title                                    : Subtítulo Español Latino Completo - SRT
Language                                 : Spanish
Default                                  : No
Forced                                   : No






Todos los links son Intercambiables!


Enlaces de Mega y Google Drive solo disponibles para Miembros VIP

Compra tu Membresía VIP y apoya a Club-HD!

ATENCIÓN! Tenemos TODO el material de Club-HD disponible por Mega y Google Drive, enlaces 100% activos y online hasta la fecha

Llévate tus cuentas Mega PRO II gratis con tu membresía VIP!
Todos los posts vivos con links de Mega y Google Drive.
Todo el material de Club-HD desbloqueado y sin publicidad.

Click Aquí para más información.


Disponible
⭐¡VER ONLINE y DESCARGAR 1 LINK!⭐


Enlaces de Mega y Google Drive solo disponibles para Miembros VIP

Compra tu Membresía VIP y apoya a Club-HD!

ATENCIÓN! Tenemos TODO el material de Club-HD disponible por Mega y Google Drive, enlaces 100% activos y online hasta la fecha

Llévate tus cuentas Mega PRO II gratis con tu membresía VIP!
Todos los posts vivos con links de Mega y Google Drive.
Todo el material de Club-HD desbloqueado y sin publicidad.

Click Aquí para más información.

Para ver este contenido oculto, debes dar click en una de las siguientes reacciones: Like Like, Love Love, Haha Haha, Wow Wow, Sad Sad, Angry Angry

Para ver este contenido oculto, debes dar click en una de las siguientes reacciones: Like Like, Love Love, Haha Haha, Wow Wow, Sad Sad, Angry Angry
 

RickAnto

Well-known member
Registrado
26 Ene 2014
Mensajes
1,021
Puntos de reacción
72
Puntos
48
Muuuchas gracias por completar la saga en Open Matte, como lo dijo el socio de mas arriba, muy agradecido, lo maximo!
 

resster

New member
Registrado
10 Abr 2019
Mensajes
28
Puntos de reacción
11
Puntos
3
Amigo disculpa, me podrías compartir el audio de esta peli? Es que ya tengo está versión en inglés y el link del Audio está caído...🙏
 

SAAEDVI

Active member
Registrado
9 Nov 2014
Mensajes
1,094
Puntos de reacción
19
Puntos
38





Título original: Harry Potter and the Deathly Hallows: Part II
Año: 2011
Duración: 130 min.
País:
Reino Unido
Dirección: David Yates
Guion: Steve Kloves (Novela: J.K. Rowling)
Música: Alexandre Desplat
Fotografía: Eduardo Serra
Reparto: Daniel Radcliffe, Emma Watson, Rupert Grint, Alan Rickman, Ralph Fiennes, Helena Bonham Carter, Michael Gambon, Jason Isaacs, Maggie Smith, David Thewlis, Julie Walters, Robbie Coltrane, Gary Oldman, Kelly MacDonald, Helen McCrory, John Hurt, Natalia Tena, Ciarán Hinds, Jim Broadbent, Emma Thompson, Bonnie Wright, Matthew Lewis, Tom Felton, Evanna Lynch, Warwick Davis, Clémence Poésy, Miriam Margolyes, Gemma Jones, David Bradley, Geraldine Somerville, Adrian Rawlins, George Harris, James Phelps, Oliver Phelps, Mark Williams, Jessie Cave, Katie Leung, Devon Murray, Afshan Azad, Sean Biggerstaff, Dave Legeno, Domhnall Gleeson, Chris Rankin, Nick Moran
Productora: Warner Bros., Heyday Films
Género: Fantástico. Aventuras. Drama | Secuela. Magia. Young Adult. 3-D. Cine épico
Premios:
2011: Oscars: 3 nominaciones técnicas: efectos visuales, dirección artística y maquillaje
2011: Critics Choice Awards: Mejor sonido y mejor maquillaje. 4 nominaciones
2011: Premios BAFTA: Mejores efectos especiales visuales. 4 nominaciones
2011: National Board of Review (NBR): Top 10 - Mejores películas del año
2011: Sindicato de Actores (SAG): Mejores especialistas de acción (Largometraje)

Harry Potter and the Deathly Hallows: Part II (2011)





El final ha llegado. Harry, Hermione y Ron tendrán que recuperar la espada de Gryffindor para encontrar y destruir los últimos horrocruxes. Mientras tanto, Lord Voldemort está a punto de apoderarse por completo de Hogwarts y de conseguir su objetivo: matar a Harry Potter. La única esperanza de Harry es encontrar los horrocruxes antes de que Voldemort lo encuentre a él. Buscando pistas, descubre una antigua y olvidada historia: la leyenda de las reliquias de la muerte, que podría dar al malvado Lord el poder definitivo. Pero el futuro de Harry está escrito desde que nació e incluye una misión para la que se ha estado preparando desde que llegó a Hogwarts: la batalla final contra Voldemort.​


































Código:
General
Complete name                            : Harry Potter and the Deathly Hallows Part II (2011) [Open Matte] 1080p AMZN WEB-DL Dual Latino-Inglés [Subt. Esp].mkv
Format                                   : Matroska
Format version                           : Version 4
File size                                : 9.98 GiB
Duration                                 : 2 h 10 min
Overall bit rate mode                    : Variable
Overall bit rate                         : 10.9 Mb/s
Encoded date                             : UTC 2020-07-31 21:06:22
Writing application                      : mkvmerge v48.0.0 ('Fortress Around Your Heart') 64-bit
Writing library                          : libebml v1.4.0 + libmatroska v1.6.0

Video
ID                                       : 1
Format                                   : AVC
Format/Info                              : Advanced Video Codec
Format profile                           : High@L4
Format settings                          : CABAC / 4 Ref Frames
Format settings, CABAC                   : Yes
Format settings, Reference frames        : 4 frames
Codec ID                                 : V_MPEG4/ISO/AVC
Duration                                 : 2 h 10 min
Bit rate mode                            : Variable
Bit rate                                 : 9 657 kb/s
Maximum bit rate                         : 15.0 Mb/s
Width                                    : 1 920 pixels
Height                                   : 1 080 pixels
Display aspect ratio                     : 16:9
Frame rate mode                          : Constant
Frame rate                               : 23.976 (24000/1001) FPS
Color space                              : YUV
Chroma subsampling                       : 4:2:0
Bit depth                                : 8 bits
Scan type                                : Progressive
Bits/(Pixel*Frame)                       : 0.194
Stream size                              : 8.81 GiB (88%)
Title                                    : Harry Potter and the Deathly Hallows Part II (2011) [Open Matte] 1080p AMZN WEB-DL Dual Latino-Inglés [Subt. Esp]
Language                                 : English
Default                                  : Yes
Forced                                   : No
Color range                              : Limited
Color primaries                          : BT.709
Transfer characteristics                 : BT.709
Matrix coefficients                      : BT.709

Audio #1
ID                                       : 2
Format                                   : AC-3
Format/Info                              : Audio Coding 3
Commercial name                          : Dolby Digital
Codec ID                                 : A_AC3
Duration                                 : 2 h 10 min
Bit rate mode                            : Constant
Bit rate                                 : 640 kb/s
Channel(s)                               : 6 channels
Channel layout                           : L R C LFE Ls Rs
Sampling rate                            : 48.0 kHz
Frame rate                               : 31.250 FPS (1536 SPF)
Compression mode                         : Lossy
Stream size                              : 598 MiB (6%)
Title                                    : Español Latino AC3 5.1 - 640 Kbps (Blu-ray)
Language                                 : Spanish
Service kind                             : Complete Main
Default                                  : Yes
Forced                                   : No

Audio #2
ID                                       : 3
Format                                   : E-AC-3
Format/Info                              : Enhanced AC-3
Commercial name                          : Dolby Digital Plus
Codec ID                                 : A_EAC3
Duration                                 : 2 h 10 min
Bit rate mode                            : Constant
Bit rate                                 : 640 kb/s
Channel(s)                               : 6 channels
Channel layout                           : L R C LFE Ls Rs
Sampling rate                            : 48.0 kHz
Frame rate                               : 31.250 FPS (1536 SPF)
Compression mode                         : Lossy
Stream size                              : 598 MiB (6%)
Title                                    : Inglés EAC3 5.1 - 640 Kbps (Original - Amazon)
Language                                 : English
Service kind                             : Complete Main
Default                                  : No
Forced                                   : No

Text #1
ID                                       : 4
Format                                   : UTF-8
Codec ID                                 : S_TEXT/UTF8
Codec ID/Info                            : UTF-8 Plain Text
Duration                                 : 23 min 47 s
Bit rate                                 : 1 b/s
Count of elements                        : 6
Stream size                              : 278 Bytes (0%)
Title                                    : Subtítulo Español Latino Forzado - SRT
Language                                 : Spanish
Default                                  : Yes
Forced                                   : No

Text #2
ID                                       : 5
Format                                   : UTF-8
Codec ID                                 : S_TEXT/UTF8
Codec ID/Info                            : UTF-8 Plain Text
Duration                                 : 1 h 55 min
Bit rate                                 : 33 b/s
Count of elements                        : 929
Stream size                              : 28.1 KiB (0%)
Title                                    : Subtítulo Español Latino Completo - SRT
Language                                 : Spanish
Default                                  : No
Forced                                   : No






Todos los links son Intercambiables!


[Hidden content]



Disponible
⭐¡VER ONLINE y DESCARGAR 1 LINK!⭐


[Hidden content]


[Hidden content]


[Hidden content]
[Hidden content]





Título original: Harry Potter and the Deathly Hallows: Part II
Año: 2011
Duración: 130 min.
País:
Reino Unido
Dirección: David Yates
Guion: Steve Kloves (Novela: J.K. Rowling)
Música: Alexandre Desplat
Fotografía: Eduardo Serra
Reparto: Daniel Radcliffe, Emma Watson, Rupert Grint, Alan Rickman, Ralph Fiennes, Helena Bonham Carter, Michael Gambon, Jason Isaacs, Maggie Smith, David Thewlis, Julie Walters, Robbie Coltrane, Gary Oldman, Kelly MacDonald, Helen McCrory, John Hurt, Natalia Tena, Ciarán Hinds, Jim Broadbent, Emma Thompson, Bonnie Wright, Matthew Lewis, Tom Felton, Evanna Lynch, Warwick Davis, Clémence Poésy, Miriam Margolyes, Gemma Jones, David Bradley, Geraldine Somerville, Adrian Rawlins, George Harris, James Phelps, Oliver Phelps, Mark Williams, Jessie Cave, Katie Leung, Devon Murray, Afshan Azad, Sean Biggerstaff, Dave Legeno, Domhnall Gleeson, Chris Rankin, Nick Moran
Productora: Warner Bros., Heyday Films
Género: Fantástico. Aventuras. Drama | Secuela. Magia. Young Adult. 3-D. Cine épico
Premios:
2011: Oscars: 3 nominaciones técnicas: efectos visuales, dirección artística y maquillaje
2011: Critics Choice Awards: Mejor sonido y mejor maquillaje. 4 nominaciones
2011: Premios BAFTA: Mejores efectos especiales visuales. 4 nominaciones
2011: National Board of Review (NBR): Top 10 - Mejores películas del año
2011: Sindicato de Actores (SAG): Mejores especialistas de acción (Largometraje)

Harry Potter and the Deathly Hallows: Part II (2011)





El final ha llegado. Harry, Hermione y Ron tendrán que recuperar la espada de Gryffindor para encontrar y destruir los últimos horrocruxes. Mientras tanto, Lord Voldemort está a punto de apoderarse por completo de Hogwarts y de conseguir su objetivo: matar a Harry Potter. La única esperanza de Harry es encontrar los horrocruxes antes de que Voldemort lo encuentre a él. Buscando pistas, descubre una antigua y olvidada historia: la leyenda de las reliquias de la muerte, que podría dar al malvado Lord el poder definitivo. Pero el futuro de Harry está escrito desde que nació e incluye una misión para la que se ha estado preparando desde que llegó a Hogwarts: la batalla final contra Voldemort.​


































Código:
General
Complete name                            : Harry Potter and the Deathly Hallows Part II (2011) [Open Matte] 1080p AMZN WEB-DL Dual Latino-Inglés [Subt. Esp].mkv
Format                                   : Matroska
Format version                           : Version 4
File size                                : 9.98 GiB
Duration                                 : 2 h 10 min
Overall bit rate mode                    : Variable
Overall bit rate                         : 10.9 Mb/s
Encoded date                             : UTC 2020-07-31 21:06:22
Writing application                      : mkvmerge v48.0.0 ('Fortress Around Your Heart') 64-bit
Writing library                          : libebml v1.4.0 + libmatroska v1.6.0

Video
ID                                       : 1
Format                                   : AVC
Format/Info                              : Advanced Video Codec
Format profile                           : High@L4
Format settings                          : CABAC / 4 Ref Frames
Format settings, CABAC                   : Yes
Format settings, Reference frames        : 4 frames
Codec ID                                 : V_MPEG4/ISO/AVC
Duration                                 : 2 h 10 min
Bit rate mode                            : Variable
Bit rate                                 : 9 657 kb/s
Maximum bit rate                         : 15.0 Mb/s
Width                                    : 1 920 pixels
Height                                   : 1 080 pixels
Display aspect ratio                     : 16:9
Frame rate mode                          : Constant
Frame rate                               : 23.976 (24000/1001) FPS
Color space                              : YUV
Chroma subsampling                       : 4:2:0
Bit depth                                : 8 bits
Scan type                                : Progressive
Bits/(Pixel*Frame)                       : 0.194
Stream size                              : 8.81 GiB (88%)
Title                                    : Harry Potter and the Deathly Hallows Part II (2011) [Open Matte] 1080p AMZN WEB-DL Dual Latino-Inglés [Subt. Esp]
Language                                 : English
Default                                  : Yes
Forced                                   : No
Color range                              : Limited
Color primaries                          : BT.709
Transfer characteristics                 : BT.709
Matrix coefficients                      : BT.709

Audio #1
ID                                       : 2
Format                                   : AC-3
Format/Info                              : Audio Coding 3
Commercial name                          : Dolby Digital
Codec ID                                 : A_AC3
Duration                                 : 2 h 10 min
Bit rate mode                            : Constant
Bit rate                                 : 640 kb/s
Channel(s)                               : 6 channels
Channel layout                           : L R C LFE Ls Rs
Sampling rate                            : 48.0 kHz
Frame rate                               : 31.250 FPS (1536 SPF)
Compression mode                         : Lossy
Stream size                              : 598 MiB (6%)
Title                                    : Español Latino AC3 5.1 - 640 Kbps (Blu-ray)
Language                                 : Spanish
Service kind                             : Complete Main
Default                                  : Yes
Forced                                   : No

Audio #2
ID                                       : 3
Format                                   : E-AC-3
Format/Info                              : Enhanced AC-3
Commercial name                          : Dolby Digital Plus
Codec ID                                 : A_EAC3
Duration                                 : 2 h 10 min
Bit rate mode                            : Constant
Bit rate                                 : 640 kb/s
Channel(s)                               : 6 channels
Channel layout                           : L R C LFE Ls Rs
Sampling rate                            : 48.0 kHz
Frame rate                               : 31.250 FPS (1536 SPF)
Compression mode                         : Lossy
Stream size                              : 598 MiB (6%)
Title                                    : Inglés EAC3 5.1 - 640 Kbps (Original - Amazon)
Language                                 : English
Service kind                             : Complete Main
Default                                  : No
Forced                                   : No

Text #1
ID                                       : 4
Format                                   : UTF-8
Codec ID                                 : S_TEXT/UTF8
Codec ID/Info                            : UTF-8 Plain Text
Duration                                 : 23 min 47 s
Bit rate                                 : 1 b/s
Count of elements                        : 6
Stream size                              : 278 Bytes (0%)
Title                                    : Subtítulo Español Latino Forzado - SRT
Language                                 : Spanish
Default                                  : Yes
Forced                                   : No

Text #2
ID                                       : 5
Format                                   : UTF-8
Codec ID                                 : S_TEXT/UTF8
Codec ID/Info                            : UTF-8 Plain Text
Duration                                 : 1 h 55 min
Bit rate                                 : 33 b/s
Count of elements                        : 929
Stream size                              : 28.1 KiB (0%)
Title                                    : Subtítulo Español Latino Completo - SRT
Language                                 : Spanish
Default                                  : No
Forced                                   : No






Todos los links son Intercambiables!


[Hidden content]



Disponible
⭐¡VER ONLINE y DESCARGAR 1 LINK!⭐


[Hidden content]


[Hidden content]


[Hidden content]
[Hidden content]
 

SAAEDVI

Active member
Registrado
9 Nov 2014
Mensajes
1,094
Puntos de reacción
19
Puntos
38
Estimados club HD mi alejamiento de ustedes se debe a que desde que empezaron con las caritas se puso mas dificil ver los link,no he podido bajar ninguna pelicula con esta alternativa,antes era mas facil con un me gusta.
 

zokraw

New member
Registrado
7 Feb 2016
Mensajes
5
Puntos de reacción
0
Puntos
1





Título original: Harry Potter and the Deathly Hallows: Part II
Año: 2011
Duración: 130 min.
País:
Reino Unido
Dirección: David Yates
Guion: Steve Kloves (Novela: J.K. Rowling)
Música: Alexandre Desplat
Fotografía: Eduardo Serra
Reparto: Daniel Radcliffe, Emma Watson, Rupert Grint, Alan Rickman, Ralph Fiennes, Helena Bonham Carter, Michael Gambon, Jason Isaacs, Maggie Smith, David Thewlis, Julie Walters, Robbie Coltrane, Gary Oldman, Kelly MacDonald, Helen McCrory, John Hurt, Natalia Tena, Ciarán Hinds, Jim Broadbent, Emma Thompson, Bonnie Wright, Matthew Lewis, Tom Felton, Evanna Lynch, Warwick Davis, Clémence Poésy, Miriam Margolyes, Gemma Jones, David Bradley, Geraldine Somerville, Adrian Rawlins, George Harris, James Phelps, Oliver Phelps, Mark Williams, Jessie Cave, Katie Leung, Devon Murray, Afshan Azad, Sean Biggerstaff, Dave Legeno, Domhnall Gleeson, Chris Rankin, Nick Moran
Productora: Warner Bros., Heyday Films
Género: Fantástico. Aventuras. Drama | Secuela. Magia. Young Adult. 3-D. Cine épico
Premios:
2011: Oscars: 3 nominaciones técnicas: efectos visuales, dirección artística y maquillaje
2011: Critics Choice Awards: Mejor sonido y mejor maquillaje. 4 nominaciones
2011: Premios BAFTA: Mejores efectos especiales visuales. 4 nominaciones
2011: National Board of Review (NBR): Top 10 - Mejores películas del año
2011: Sindicato de Actores (SAG): Mejores especialistas de acción (Largometraje)

Harry Potter and the Deathly Hallows: Part II (2011)





El final ha llegado. Harry, Hermione y Ron tendrán que recuperar la espada de Gryffindor para encontrar y destruir los últimos horrocruxes. Mientras tanto, Lord Voldemort está a punto de apoderarse por completo de Hogwarts y de conseguir su objetivo: matar a Harry Potter. La única esperanza de Harry es encontrar los horrocruxes antes de que Voldemort lo encuentre a él. Buscando pistas, descubre una antigua y olvidada historia: la leyenda de las reliquias de la muerte, que podría dar al malvado Lord el poder definitivo. Pero el futuro de Harry está escrito desde que nació e incluye una misión para la que se ha estado preparando desde que llegó a Hogwarts: la batalla final contra Voldemort.​


































Código:
General
Complete name                            : Harry Potter and the Deathly Hallows Part II (2011) [Open Matte] 1080p AMZN WEB-DL Dual Latino-Inglés [Subt. Esp].mkv
Format                                   : Matroska
Format version                           : Version 4
File size                                : 9.98 GiB
Duration                                 : 2 h 10 min
Overall bit rate mode                    : Variable
Overall bit rate                         : 10.9 Mb/s
Encoded date                             : UTC 2020-07-31 21:06:22
Writing application                      : mkvmerge v48.0.0 ('Fortress Around Your Heart') 64-bit
Writing library                          : libebml v1.4.0 + libmatroska v1.6.0

Video
ID                                       : 1
Format                                   : AVC
Format/Info                              : Advanced Video Codec
Format profile                           : High@L4
Format settings                          : CABAC / 4 Ref Frames
Format settings, CABAC                   : Yes
Format settings, Reference frames        : 4 frames
Codec ID                                 : V_MPEG4/ISO/AVC
Duration                                 : 2 h 10 min
Bit rate mode                            : Variable
Bit rate                                 : 9 657 kb/s
Maximum bit rate                         : 15.0 Mb/s
Width                                    : 1 920 pixels
Height                                   : 1 080 pixels
Display aspect ratio                     : 16:9
Frame rate mode                          : Constant
Frame rate                               : 23.976 (24000/1001) FPS
Color space                              : YUV
Chroma subsampling                       : 4:2:0
Bit depth                                : 8 bits
Scan type                                : Progressive
Bits/(Pixel*Frame)                       : 0.194
Stream size                              : 8.81 GiB (88%)
Title                                    : Harry Potter and the Deathly Hallows Part II (2011) [Open Matte] 1080p AMZN WEB-DL Dual Latino-Inglés [Subt. Esp]
Language                                 : English
Default                                  : Yes
Forced                                   : No
Color range                              : Limited
Color primaries                          : BT.709
Transfer characteristics                 : BT.709
Matrix coefficients                      : BT.709

Audio #1
ID                                       : 2
Format                                   : AC-3
Format/Info                              : Audio Coding 3
Commercial name                          : Dolby Digital
Codec ID                                 : A_AC3
Duration                                 : 2 h 10 min
Bit rate mode                            : Constant
Bit rate                                 : 640 kb/s
Channel(s)                               : 6 channels
Channel layout                           : L R C LFE Ls Rs
Sampling rate                            : 48.0 kHz
Frame rate                               : 31.250 FPS (1536 SPF)
Compression mode                         : Lossy
Stream size                              : 598 MiB (6%)
Title                                    : Español Latino AC3 5.1 - 640 Kbps (Blu-ray)
Language                                 : Spanish
Service kind                             : Complete Main
Default                                  : Yes
Forced                                   : No

Audio #2
ID                                       : 3
Format                                   : E-AC-3
Format/Info                              : Enhanced AC-3
Commercial name                          : Dolby Digital Plus
Codec ID                                 : A_EAC3
Duration                                 : 2 h 10 min
Bit rate mode                            : Constant
Bit rate                                 : 640 kb/s
Channel(s)                               : 6 channels
Channel layout                           : L R C LFE Ls Rs
Sampling rate                            : 48.0 kHz
Frame rate                               : 31.250 FPS (1536 SPF)
Compression mode                         : Lossy
Stream size                              : 598 MiB (6%)
Title                                    : Inglés EAC3 5.1 - 640 Kbps (Original - Amazon)
Language                                 : English
Service kind                             : Complete Main
Default                                  : No
Forced                                   : No

Text #1
ID                                       : 4
Format                                   : UTF-8
Codec ID                                 : S_TEXT/UTF8
Codec ID/Info                            : UTF-8 Plain Text
Duration                                 : 23 min 47 s
Bit rate                                 : 1 b/s
Count of elements                        : 6
Stream size                              : 278 Bytes (0%)
Title                                    : Subtítulo Español Latino Forzado - SRT
Language                                 : Spanish
Default                                  : Yes
Forced                                   : No

Text #2
ID                                       : 5
Format                                   : UTF-8
Codec ID                                 : S_TEXT/UTF8
Codec ID/Info                            : UTF-8 Plain Text
Duration                                 : 1 h 55 min
Bit rate                                 : 33 b/s
Count of elements                        : 929
Stream size                              : 28.1 KiB (0%)
Title                                    : Subtítulo Español Latino Completo - SRT
Language                                 : Spanish
Default                                  : No
Forced                                   : No






Todos los links son Intercambiables!


[Hidden content]



Disponible
⭐¡VER ONLINE y DESCARGAR 1 LINK!⭐


[Hidden content]


[Hidden content]


[Hidden content]
[Hidden content]
Gracias por el aporte
 

Usuarios Que Están Viendo Este Tema (Total: 1, Miembros: 0, Invitados: 1)

Arriba