• Este aviso va dirigido a todos los nuevos miembros recien llegados a Club-HD. Les recordamos que la direccion URL de este sitio web es , asi que deben acceder únicamente por esta URL. Sean todos bienvenidos al Club!

La jauría: The Complete First Season (2020) 1080p AMZN WEB-DL Latino [Subt. Esp] (Serie de TV. Fantástico)

Brady

Moderador
Miembro del Staff
Moderador
Uploader
Registrado
1 Jun 2016
Mensajes
2,589
Puntos de reacción
40,376
Puntos
113
Edad
24




Sinopsis
8 Episodios. Blanca Ibarra (Antonia Giesen), de 17 años, estudiante y líder de un movimiento feminista, desaparece en medio de una protesta organizada por un grupo de alumnas del colegio Santa Inés tras un supuesto caso de abuso entre un profesor y una estudiante. Horas más tarde, una grabación de la joven siendo violada por un grupo de hombres aparece on line y se vuelve viral en las redes sociales. Esto provoca una frenética búsqueda para dar con el paradero de Blanca y de los responsables del hecho. Inicialmente no hay pistas, pero pronto Elisa Murillo (Daniela Vega), Olivia Fernández (Antonia Zegers) y Carla Farías (María Gracia Omegna), pertenecientes a la unidad policial especializada en delitos de género, descubren que todos los sospechosos integran un grupo de chat llamado "La Jauría de lobos". Detrás de esto estarían involucrados un profesor (Marcelo Alonso), un sacerdote (Francisco Reyes), un psicólogo (Alberto Guerra) e incluso el propio padre de Blanca (Daniel Muñoz).


Un agradecimiento muy especial para nuestro Amigo & Colaborador AvoHD por los WEB-DL de la Serie


MEDIAINFO
Código:
General
Unique ID                                : 339539532857860126753453203470483588473 (0xFF70EF73FA259B6714797D33310A0579)
Format                                   : Matroska
Format version                           : Version 4
File size                                : 2.92 GiB
Duration                                 : 55 min 21 s
Overall bit rate                         : 7 541 kb/s
Encoded date                             : UTC 2020-07-15 05:59:53
Writing application                      : mkvmerge v48.0.0 ('Fortress Around Your Heart') 64-bit
Writing library                          : libebml v1.4.0 + libmatroska v1.6.0
Uploader                                 : Brady
Web                                      : www.club-hd.com

Video
ID                                       : 1
Format                                   : AVC
Format/Info                              : Advanced Video Codec
Format profile                           : High@L4
Format settings                          : CABAC / 4 Ref Frames
Format settings, CABAC                   : Yes
Format settings, Reference frames        : 4 frames
Codec ID                                 : V_MPEG4/ISO/AVC
Duration                                 : 55 min 21 s
Bit rate mode                            : Constant
Bit rate                                 : 6 899 kb/s
Nominal bit rate                         : 10 000 kb/s
Width                                    : 1 920 pixels
Height                                   : 1 080 pixels
Display aspect ratio                     : 16:9
Frame rate mode                          : Constant
Frame rate                               : 23.976 (24000/1001) FPS
Color space                              : YUV
Chroma subsampling                       : 4:2:0
Bit depth                                : 8 bits
Scan type                                : Progressive
Bits/(Pixel*Frame)                       : 0.139
Stream size                              : 2.67 GiB (91%)
Language                                 : Spanish
Default                                  : Yes
Forced                                   : No
Color range                              : Limited
Color primaries                          : BT.709
Transfer characteristics                 : BT.709
Matrix coefficients                      : BT.709

Audio
ID                                       : 2
Format                                   : E-AC-3
Format/Info                              : Enhanced AC-3
Commercial name                          : Dolby Digital Plus
Codec ID                                 : A_EAC3
Duration                                 : 55 min 21 s
Bit rate mode                            : Constant
Bit rate                                 : 640 kb/s
Channel(s)                               : 6 channels
Channel layout                           : L R C LFE Ls Rs
Sampling rate                            : 48.0 kHz
Frame rate                               : 31.250 FPS (1536 SPF)
Compression mode                         : Lossy
Stream size                              : 253 MiB (8%)
Title                                    : Latino
Language                                 : Spanish
Service kind                             : Complete Main
Default                                  : Yes
Forced                                   : No

Text
ID                                       : 3
Format                                   : UTF-8
Codec ID                                 : S_TEXT/UTF8
Codec ID/Info                            : UTF-8 Plain Text
Duration                                 : 55 min 2 s
Bit rate                                 : 90 b/s
Count of elements                        : 1156
Stream size                              : 36.3 KiB (0%)
Title                                    : Latino
Language                                 : Spanish
Default                                  : No
Forced                                   : No
CAPTURAS







DESCARGA
Todos los links son Intercambiables!



Disponible
👻 ¡VER ONLINE y DESCARGAR 1 LINK!👻


Enlaces de Mega y Google Drive solo disponibles para Miembros VIP

Compra tu Membresía VIP y apoya a Club-HD!

ATENCIÓN! Tenemos TODO el material de Club-HD disponible por Mega y Google Drive, enlaces 100% activos y online hasta la fecha

Llévate tus cuentas Mega PRO II gratis con tu membresía VIP!
Todos los posts vivos con links de Mega y Google Drive.
Todo el material de Club-HD desbloqueado y sin publicidad.

Click Aquí para más información.


Enlaces de Mega y Google Drive solo disponibles para Miembros VIP

Compra tu Membresía VIP y apoya a Club-HD!

ATENCIÓN! Tenemos TODO el material de Club-HD disponible por Mega y Google Drive, enlaces 100% activos y online hasta la fecha

Llévate tus cuentas Mega PRO II gratis con tu membresía VIP!
Todos los posts vivos con links de Mega y Google Drive.
Todo el material de Club-HD desbloqueado y sin publicidad.

Click Aquí para más información.


Para ver este contenido oculto, debes dar click en una de las siguientes reacciones: Like Like, Love Love, Haha Haha, Wow Wow, Sad Sad, Angry Angry


Para ver este contenido oculto, debes dar click en una de las siguientes reacciones: Like Like, Love Love, Haha Haha, Wow Wow, Sad Sad, Angry Angry


Para ver este contenido oculto, debes dar click en una de las siguientes reacciones: Like Like, Love Love, Haha Haha, Wow Wow, Sad Sad, Angry Angry
CONTRASEÑA
Código:
www.club-hd.com
 

cristiangonzalo

Active member
Registrado
21 Oct 2012
Mensajes
625
Puntos de reacción
147
Puntos
43
Edad
32
muchas gracias, me la descargo ya que no tengo Amazon , muchas gracias a quien te colaboro con el material, un abrazo.
 

cripp

Well-known member
Registrado
27 Ago 2012
Mensajes
8,125
Puntos de reacción
481
Puntos
113
Gracias por compartir
 

chavy_x12

Member
Registrado
28 Ago 2012
Mensajes
988
Puntos de reacción
24
Puntos
18
Edad
35
Muchas gracias por compartir (y)
 

Usuarios Que Están Viendo Este Tema (Total: 1, Miembros: 0, Invitados: 1)

Arriba