• Este aviso va dirigido a todos los nuevos miembros recien llegados a Club-HD. Les recordamos que la direccion URL de este sitio web es , asi que deben acceder únicamente por esta URL. Sean todos bienvenidos al Club!

La Vita è Bella (1997) 1080p Dual Latino-Italiano [Subt. Esp-Eng] (Comedia. Drama)

Alsamishak

Well-known member
Uploader
Registrado
20 Oct 2013
Mensajes
72
Puntos de reacción
404
Puntos
53



Título Original: La vita è bella.
Año: 1997
Duración: 117 min.
País: Italia.
Director: Roberto Benigni.
Guion: Roberto Benigni, Vincenzo Cerami.
Reparto: Roberto Benigni, Nicoletta Braschi, Giorgio Cantarini, Marisa Paredes, Giustino Durano, Horst Buchholz, Sergio Bini Bustric.
Productora: Miramax. Melampo Cinematografica, Cecchi Gori Group Tiger Cinematografica.
Género: Bélico | Comedia. Drama.









En 1939, a punto de estallar la Segunda Guerra Mundial (1939-1945), el extravagante Guido llega a Arezzo, en la Toscana, con la intención de abrir una librería. Allí conoce a la encantadora Dora y, a pesar de que es la prometida del fascista Rodolfo, se casa con ella y tiene un hijo. Al estallar la guerra, los tres son internados en un campo de exterminio, donde Guido hará lo imposible para hacer creer a su hijo que la terrible situación que están padeciendo es tan sólo un juego.



MÁS INFORMACIÓN



























Format : Matroska
Format version : Version 4
File size : 9.42 GiB
Duration : 1 h 56 min
Overall bit rate : 11.6 Mb/s
Encoded date : UTC 2020-09-07 11:58:54
Writing application : mkvmerge v20.0.0 ('I Am The Sun') 64-bit
Writing library : libebml v1.3.5 + libmatroska v1.4.8

Video
ID : 1
Format : AVC
Format/Info : Advanced Video Codec
Format profile : High@L4.1
Format settings : CABAC / 4 Ref Frames
Format settings, CABAC : Yes
Format settings, Reference frames : 4 frames
Codec ID : V_MPEG4/ISO/AVC
Duration : 1 h 56 min
Bit rate : 9 270 kb/s
Width : 1 920 pixels
Height : 1 040 pixels
Display aspect ratio : 1.85:1
Frame rate mode : Constant
Frame rate : 23.976 (24000/1001) FPS
Color space : YUV
Chroma subsampling : 4:2:0
Bit depth : 8 bits
Scan type : Progressive
Bits/(Pixel*Frame) : 0.194
Stream size : 7.52 GiB (80%)
Writing library : x264 core 107 r1745 4785e8e
Encoding settings : cabac=1 / ref=4 / deblock=1:-1:-1 / analyse=0x3:0x133 / me=umh / subme=7 / psy=1 / psy_rd=1.00:0.15 / mixed_ref=1 / me_range=16 / chroma_me=1 / trellis=1 / 8x8dct=1 / cqm=0 / deadzone=21,11 / fast_pskip=0 / chroma_qp_offset=-3 / threads=12 / sliced_threads=0 / nr=0 / decimate=1 / interlaced=0 / constrained_intra=0 / bframes=3 / b_pyramid=2 / b_adapt=1 / b_bias=0 / direct=1 / weightb=1 / open_gop=0 / weightp=2 / keyint=250 / keyint_min=23 / scenecut=40 / intra_refresh=0 / rc_lookahead=40 / rc=2pass / mbtree=1 / bitrate=9270 / ratetol=1.0 / qcomp=0.60 / qpmin=10 / qpmax=51 / qpstep=4 / cplxblur=20.0 / qblur=0.5 / ip_ratio=1.40 / aq=1:1.00
Language : English
Default : No
Forced : No

Audio #1
ID : 2
Format : AC-3
Format/Info : Audio Coding 3
Commercial name : Dolby Digital
Codec ID : A_AC3
Duration : 1 h 56 min
Bit rate mode : Constant
Bit rate : 192 kb/s
Channel(s) : 2 channels
Channel layout : L R
Sampling rate : 48.0 kHz
Frame rate : 31.250 FPS (1536 SPF)
Compression mode : Lossy
Delay relative to video : 200 ms
Stream size : 160 MiB (2%)
Title : Latino AC-3
Language : Spanish
Service kind : Complete Main
Default : Yes
Forced : Yes

Audio #2
ID : 3
Format : DTS
Format/Info : Digital Theater Systems
Codec ID : A_DTS
Duration : 1 h 56 min
Bit rate mode : Constant
Bit rate : 1 509 kb/s
Channel(s) : 6 channels
Channel layout : C L R Ls Rs LFE
Sampling rate : 48.0 kHz
Frame rate : 93.750 FPS (512 SPF)
Bit depth : 24 bits
Compression mode : Lossy
Stream size : 1.22 GiB (13%)
Title : Italiano DTS
Language : Italian
Default : No
Forced : No

Audio #3
ID : 4
Format : AC-3
Format/Info : Audio Coding 3
Commercial name : Dolby Digital
Codec ID : A_AC3
Duration : 1 h 56 min
Bit rate mode : Constant
Bit rate : 640 kb/s
Channel(s) : 6 channels
Channel layout : L R C LFE Ls Rs
Sampling rate : 48.0 kHz
Frame rate : 31.250 FPS (1536 SPF)
Compression mode : Lossy
Stream size : 532 MiB (6%)
Title : Italiano AC-3
Language : Italian
Service kind : Complete Main
Default : No
Forced : No

Text #1
ID : 5
Format : UTF-8
Codec ID : S_TEXT/UTF8
Codec ID/Info : UTF-8 Plain Text
Duration : 1 h 51 min
Bit rate : 54 b/s
Count of elements : 1357
Stream size : 44.7 KiB (0%)
Title : Español
Language : Spanish
Default : No
Forced : No

Text #2
ID : 6
Format : UTF-8
Codec ID : S_TEXT/UTF8
Codec ID/Info : UTF-8 Plain Text
Duration : 1 h 55 min
Bit rate : 52 b/s
Count of elements : 1340
Stream size : 44.8 KiB (0%)
Title : Inglés
Language : English
Default : No
Forced : No

Menu
00:00:00.000 : it:Chapter 01
00:05:41.883 : it:Chapter 02
00:11:20.721 : it:Chapter 03
00:16:43.544 : it:Chapter 04
00:20:43.282 : it:Chapter 05
00:25:21.561 : it:Chapter 06
00:32:53.513 : it:Chapter 07
00:35:57.196 : it:Chapter 08
00:39:55.476 : it:Chapter 09
00:47:40.440 : it:Chapter 10
00:51:17.657 : it:Chapter 11
00:54:11.831 : it:Chapter 12
00:56:16.456 : it:Chapter 13
01:02:07.305 : it:Chapter 14
01:09:36.255 : it:Chapter 15
01:13:45.003 : it:Chapter 16
01:19:49.367 : it:Chapter 17
01:22:26.024 : it:Chapter 18
01:29:54.472 : it:Chapter 19
01:38:55.012 : it:Chapter 20
01:52:42.881 : it:Chapter 21


★ CONTRASEÑA ★


★ DESCARGA ★

Todos los links son Intercambiables!




DISPONIBLE
⭐¡VER ONLINE y DESCARGAR 1 LINK!⭐

Enlaces de Mega y Google Drive solo disponibles para Miembros VIP

Compra tu Membresía VIP y apoya a Club-HD!

ATENCIÓN! Tenemos TODO el material de Club-HD disponible por Mega y Google Drive, enlaces 100% activos y online hasta la fecha

Llévate tus cuentas Mega PRO II gratis con tu membresía VIP!
Todos los posts vivos con links de Mega y Google Drive.
Todo el material de Club-HD desbloqueado y sin publicidad.

Click Aquí para más información.


Enlaces de Mega y Google Drive solo disponibles para Miembros VIP

Compra tu Membresía VIP y apoya a Club-HD!

ATENCIÓN! Tenemos TODO el material de Club-HD disponible por Mega y Google Drive, enlaces 100% activos y online hasta la fecha

Llévate tus cuentas Mega PRO II gratis con tu membresía VIP!
Todos los posts vivos con links de Mega y Google Drive.
Todo el material de Club-HD desbloqueado y sin publicidad.

Click Aquí para más información.



Para ver este contenido oculto, debes dar click en una de las siguientes reacciones: Like Like, Love Love, Haha Haha, Wow Wow, Sad Sad, Angry Angry



Para ver este contenido oculto, debes dar click en una de las siguientes reacciones: Like Like, Love Love, Haha Haha, Wow Wow, Sad Sad, Angry Angry



Para ver este contenido oculto, debes dar click en una de las siguientes reacciones: Like Like, Love Love, Haha Haha, Wow Wow, Sad Sad, Angry Angry



Para ver este contenido oculto, debes dar click en una de las siguientes reacciones: Like Like, Love Love, Haha Haha, Wow Wow, Sad Sad, Angry Angry
 

fvilca

Member
Registrado
16 Nov 2012
Mensajes
105
Puntos de reacción
4
Puntos
18



Título Original: La vita è bella.
Año: 1997
Duración: 117 min.
País: Italia.
Director: Roberto Benigni.
Guion: Roberto Benigni, Vincenzo Cerami.
Reparto: Roberto Benigni, Nicoletta Braschi, Giorgio Cantarini, Marisa Paredes, Giustino Durano, Horst Buchholz, Sergio Bini Bustric.
Productora: Miramax. Melampo Cinematografica, Cecchi Gori Group Tiger Cinematografica.
Género: Bélico | Comedia. Drama.









En 1939, a punto de estallar la Segunda Guerra Mundial (1939-1945), el extravagante Guido llega a Arezzo, en la Toscana, con la intención de abrir una librería. Allí conoce a la encantadora Dora y, a pesar de que es la prometida del fascista Rodolfo, se casa con ella y tiene un hijo. Al estallar la guerra, los tres son internados en un campo de exterminio, donde Guido hará lo imposible para hacer creer a su hijo que la terrible situación que están padeciendo es tan sólo un juego.



MÁS INFORMACIÓN



























Format : Matroska
Format version : Version 4
File size : 9.42 GiB
Duration : 1 h 56 min
Overall bit rate : 11.6 Mb/s
Encoded date : UTC 2020-09-07 11:58:54
Writing application : mkvmerge v20.0.0 ('I Am The Sun') 64-bit
Writing library : libebml v1.3.5 + libmatroska v1.4.8

Video
ID : 1
Format : AVC
Format/Info : Advanced Video Codec
Format profile : High@L4.1
Format settings : CABAC / 4 Ref Frames
Format settings, CABAC : Yes
Format settings, Reference frames : 4 frames
Codec ID : V_MPEG4/ISO/AVC
Duration : 1 h 56 min
Bit rate : 9 270 kb/s
Width : 1 920 pixels
Height : 1 040 pixels
Display aspect ratio : 1.85:1
Frame rate mode : Constant
Frame rate : 23.976 (24000/1001) FPS
Color space : YUV
Chroma subsampling : 4:2:0
Bit depth : 8 bits
Scan type : Progressive
Bits/(Pixel*Frame) : 0.194
Stream size : 7.52 GiB (80%)
Writing library : x264 core 107 r1745 4785e8e
Encoding settings : cabac=1 / ref=4 / deblock=1:-1:-1 / analyse=0x3:0x133 / me=umh / subme=7 / psy=1 / psy_rd=1.00:0.15 / mixed_ref=1 / me_range=16 / chroma_me=1 / trellis=1 / 8x8dct=1 / cqm=0 / deadzone=21,11 / fast_pskip=0 / chroma_qp_offset=-3 / threads=12 / sliced_threads=0 / nr=0 / decimate=1 / interlaced=0 / constrained_intra=0 / bframes=3 / b_pyramid=2 / b_adapt=1 / b_bias=0 / direct=1 / weightb=1 / open_gop=0 / weightp=2 / keyint=250 / keyint_min=23 / scenecut=40 / intra_refresh=0 / rc_lookahead=40 / rc=2pass / mbtree=1 / bitrate=9270 / ratetol=1.0 / qcomp=0.60 / qpmin=10 / qpmax=51 / qpstep=4 / cplxblur=20.0 / qblur=0.5 / ip_ratio=1.40 / aq=1:1.00
Language : English
Default : No
Forced : No

Audio #1
ID : 2
Format : AC-3
Format/Info : Audio Coding 3
Commercial name : Dolby Digital
Codec ID : A_AC3
Duration : 1 h 56 min
Bit rate mode : Constant
Bit rate : 192 kb/s
Channel(s) : 2 channels
Channel layout : L R
Sampling rate : 48.0 kHz
Frame rate : 31.250 FPS (1536 SPF)
Compression mode : Lossy
Delay relative to video : 200 ms
Stream size : 160 MiB (2%)
Title : Latino AC-3
Language : Spanish
Service kind : Complete Main
Default : Yes
Forced : Yes

Audio #2
ID : 3
Format : DTS
Format/Info : Digital Theater Systems
Codec ID : A_DTS
Duration : 1 h 56 min
Bit rate mode : Constant
Bit rate : 1 509 kb/s
Channel(s) : 6 channels
Channel layout : C L R Ls Rs LFE
Sampling rate : 48.0 kHz
Frame rate : 93.750 FPS (512 SPF)
Bit depth : 24 bits
Compression mode : Lossy
Stream size : 1.22 GiB (13%)
Title : Italiano DTS
Language : Italian
Default : No
Forced : No

Audio #3
ID : 4
Format : AC-3
Format/Info : Audio Coding 3
Commercial name : Dolby Digital
Codec ID : A_AC3
Duration : 1 h 56 min
Bit rate mode : Constant
Bit rate : 640 kb/s
Channel(s) : 6 channels
Channel layout : L R C LFE Ls Rs
Sampling rate : 48.0 kHz
Frame rate : 31.250 FPS (1536 SPF)
Compression mode : Lossy
Stream size : 532 MiB (6%)
Title : Italiano AC-3
Language : Italian
Service kind : Complete Main
Default : No
Forced : No

Text #1
ID : 5
Format : UTF-8
Codec ID : S_TEXT/UTF8
Codec ID/Info : UTF-8 Plain Text
Duration : 1 h 51 min
Bit rate : 54 b/s
Count of elements : 1357
Stream size : 44.7 KiB (0%)
Title : Español
Language : Spanish
Default : No
Forced : No

Text #2
ID : 6
Format : UTF-8
Codec ID : S_TEXT/UTF8
Codec ID/Info : UTF-8 Plain Text
Duration : 1 h 55 min
Bit rate : 52 b/s
Count of elements : 1340
Stream size : 44.8 KiB (0%)
Title : Inglés
Language : English
Default : No
Forced : No

Menu
00:00:00.000 : it:Chapter 01
00:05:41.883 : it:Chapter 02
00:11:20.721 : it:Chapter 03
00:16:43.544 : it:Chapter 04
00:20:43.282 : it:Chapter 05
00:25:21.561 : it:Chapter 06
00:32:53.513 : it:Chapter 07
00:35:57.196 : it:Chapter 08
00:39:55.476 : it:Chapter 09
00:47:40.440 : it:Chapter 10
00:51:17.657 : it:Chapter 11
00:54:11.831 : it:Chapter 12
00:56:16.456 : it:Chapter 13
01:02:07.305 : it:Chapter 14
01:09:36.255 : it:Chapter 15
01:13:45.003 : it:Chapter 16
01:19:49.367 : it:Chapter 17
01:22:26.024 : it:Chapter 18
01:29:54.472 : it:Chapter 19
01:38:55.012 : it:Chapter 20
01:52:42.881 : it:Chapter 21


★ CONTRASEÑA ★


★ DESCARGA ★

Todos los links son Intercambiables!




DISPONIBLE
⭐¡VER ONLINE y DESCARGAR 1 LINK!⭐

[Hidden content]



[Hidden content]




[Hidden content]




[Hidden content]




[Hidden content]




[Hidden content]
Gracias por subir este clasico
 

Usuarios Que Están Viendo Este Tema (Total: 1, Miembros: 0, Invitados: 1)

Arriba