Luther S01-S05 (2010-2019) 1080p AMZN Dual Latino-Inglés [Subt.Esp] (Drama. Crimen. Policíaco)

Richter

Honorífico
17 May 2018
1.717
21.770
Luther S01-S05 (2010-2019) 1080p AMZN Dual Latino-Inglés [Subt.Esp] (Drama. Crimen. Policíaco)



Luther S01-S05 (2010-2019) 1080p AMZN Dual Latino-Inglés [Subt.Esp] (Drama. Crimen. Policíaco)

John Luther, un detective que trabaja para la Unidad de Delitos Graves, vive dedicado a su trabajo y tiene una gran capacidad. Sin embargo, nunca ha podido evitar ser absorbido por la oscuridad de los crímenes a los que se enfrenta.


MEDIAINFO
Código:
Format                      : Matroska
Format version              : Version 4
File size                   : 3.70 GiB
Duration                    : 52 min 35 s
Overall bit rate            : 10.1 Mb/s
Encoded date                : UTC 2020-12-26 07:15:25
Writing application         : mkvmerge v51.0.0 ('I Wish') 64-bit
Writing library             : libebml v1.4.0 + libmatroska v1.6.2

Video
ID                          : 1
Format                      : AVC
Format/Info                 : Advanced Video Codec
Format profile              : High@L4
Format settings             : CABAC / 4 Ref Frames
Format settings, CABAC      : Yes
Format settings, Reference  : 4 frames
Codec ID                    : V_MPEG4/ISO/AVC
Duration                    : 52 min 35 s
Bit rate mode               : Constant
Bit rate                    : 10 000 kb/s
Width                       : 1 920 pixels
Height                      : 1 080 pixels
Display aspect ratio        : 16:9
Frame rate mode             : Constant
Frame rate                  : 25.000 FPS
Color space                 : YUV
Chroma subsampling          : 4:2:0
Bit depth                   : 8 bits
Scan type                   : Progressive
Bits/(Pixel*Frame)          : 0.193
Stream size                 : 3.54 GiB (96%)
Default                     : Yes
Forced                      : No
Color range                 : Limited
Color primaries             : BT.709
Transfer characteristics    : BT.709
Matrix coefficients         : BT.709

Audio #1
ID                          : 2
Format                      : E-AC-3
Format/Info                 : Enhanced AC-3
Commercial name             : Dolby Digital Plus
Codec ID                    : A_EAC3
Duration                    : 52 min 35 s
Bit rate mode               : Constant
Bit rate                    : 224 kb/s
Channel(s)                  : 2 channels
Channel layout              : L R
Sampling rate               : 48.0 kHz
Frame rate                  : 31.250 FPS (1536 SPF)
Compression mode            : Lossy
Stream size                 : 84.2 MiB (2%)
Title                       : Español latino
Language                    : Spanish
Service kind                : Complete Main
Default                     : Yes
Forced                      : No

Audio #2
ID                          : 3
Format                      : E-AC-3
Format/Info                 : Enhanced AC-3
Commercial name             : Dolby Digital Plus
Codec ID                    : A_EAC3
Duration                    : 52 min 35 s
Bit rate mode               : Constant
Bit rate                    : 224 kb/s
Channel(s)                  : 2 channels
Channel layout              : L R
Sampling rate               : 48.0 kHz
Frame rate                  : 31.250 FPS (1536 SPF)
Compression mode            : Lossy
Stream size                 : 84.2 MiB (2%)
Title                       : Inglés
Language                    : English
Service kind                : Complete Main
Default                     : No
Forced                      : No

Text #1
ID                          : 4
Format                      : UTF-8
Codec ID                    : S_TEXT/UTF8
Codec ID/Info               : UTF-8 Plain Text
Duration                    : 50 min 22 s
Bit rate                    : 54 b/s
Frame rate                  : 0.221 FPS
Count of elements           : 667
Stream size                 : 20.0 KiB (0%)
Title                       : Español latino [Completos]
Language                    : Spanish
Default                     : No
Forced                      : No

Text #2
ID                          : 5
Format                      : UTF-8
Codec ID                    : S_TEXT/UTF8
Codec ID/Info               : UTF-8 Plain Text
Duration                    : 51 min 21 s
Bit rate                    : 66 b/s
Frame rate                  : 0.239 FPS
Count of elements           : 738
Stream size                 : 25.1 KiB (0%)
Title                       : Inglés
Language                    : English
Default                     : No
Forced                      : No

Luther S01-S05 (2010-2019) 1080p AMZN Dual Latino-Inglés [Subt.Esp] (Drama. Crimen. Policíaco)


Luther S01-S05 (2010-2019) 1080p AMZN Dual Latino-Inglés [Subt.Esp] (Drama. Crimen. Policíaco)

Luther S01-S05 (2010-2019) 1080p AMZN Dual Latino-Inglés [Subt.Esp] (Drama. Crimen. Policíaco)

Luther S01-S05 (2010-2019) 1080p AMZN Dual Latino-Inglés [Subt.Esp] (Drama. Crimen. Policíaco)

Luther S01-S05 (2010-2019) 1080p AMZN Dual Latino-Inglés [Subt.Esp] (Drama. Crimen. Policíaco)

Luther S01-S05 (2010-2019) 1080p AMZN Dual Latino-Inglés [Subt.Esp] (Drama. Crimen. Policíaco)

Luther S01-S05 (2010-2019) 1080p AMZN Dual Latino-Inglés [Subt.Esp] (Drama. Crimen. Policíaco)


Luther S01-S05 (2010-2019) 1080p AMZN Dual Latino-Inglés [Subt.Esp] (Drama. Crimen. Policíaco)


Vídeo WEB-DL H264 1920x1080 (High@L4, AVC)
Formato de audio: EAC3 2.0 (Español Latino) EAC3 2.0 (Inglés)
Formato de subtítulos: SRT
Lista de subtítulos: Latino e inglés
Lista de audio: Latino e inglés
Fuente: Prime video Lionsgate

Luther S01-S05 (2010-2019) 1080p AMZN Dual Latino-Inglés [Subt.Esp] (Drama. Crimen. Policíaco)


Luther S01-S05 (2010-2019) 1080p AMZN Dual Latino-Inglés [Subt.Esp] (Drama. Crimen. Policíaco)


Enlaces de Mega solo disponibles para Miembros VIP

Compra tu Membresía VIP y apoya a Club-HD!

ATENCIÓN! Tenemos TODO el material de Club-HD disponible por Mega, enlaces 100% activos y online hasta la fecha

Llévate tus cuentas Mega PRO III gratis con tu membresía VIP!
Todos los posts vivos con links de Mega.
Todo el material de Club-HD desbloqueado y sin publicidad.

Click Aquí para más información.
Luther S01-S05 (2010-2019) 1080p AMZN Dual Latino-Inglés [Subt.Esp] (Drama. Crimen. Policíaco)


Para ver este contenido oculto, debes dar click en el botón "Like", o cualquiera de las otras reacciones:

Me Gusta Me Gusta, Me Encanta Me Encanta, Jaja Jaja, Wow Wow, Triste Triste, Molesto Molesto
 
Última edición por un moderador:
16 Jun 2015
52
29
Me temo que todos los subtítulos están desfasados ligeramente al principio, y un poco más conforme el episodio va avanzando. Esto pasa para toda la serie. Una lástima, porque me habría gustado verla en su idioma original. Igual se agradece el audio latino.

Saludos!
 
Arriba