Mayor of Kingstown: Season 2 (2023) 1080p PMTP WEB-DL Latino-Inglés [Subt.Esp] (Serie de TV. Drama. Thriller)

LuchoO

責任者

Moderador
Uploader
Registro
15 Ago 2015
Mensajes
1.940
Reacciones (ptje)
29.011

S02cover.png



FICHA.TECNICA.png


Captura.JPG


SINOPSIS.PNG



Serie de TV (2021- ). 3 temporadas. Mayor of Kingstown sigue a la familia McLusky, dueños de un poderoso imperio en Kingstown, Michigan, donde el negocio del encarcelamiento es la única industria próspera. Abordando temas de racismo sistémico, corrupción y desigualdad, la serie ofrece una mirada cruda a su intento de traer orden y justicia a una ciudad que carece de ambos.

8.2



TRAILER.PNG



CAPTURAS.PNG


S02.0001.jpeg


S02.0002.jpeg


S02.0003.jpeg


S02.0004.jpeg



MEDIAINFO.PNG

General
Complete name : Mayor.of.Kingstown.S02E01.Never.Missed.a.Pigeon.1080p.PMTP.WEB-DL.DDP2.0.H.264-MDX.mkv
Format : Matroska
Format version : Version 4
File size : 1.75 GiB
Duration : 52 min 35 s
Overall bit rate : 4 765 kb/s
Frame rate : 23.976 FPS
Movie name : [Club-HD] Mayor.of.Kingstown.S02E01.Never.Missed.a.Pigeon.1080p.PMTP.WEB-DL.DDP2.0.H.264-MDX.mkv
Encoded date : 2024-06-02 20:49:04 UTC
Writing application : mkvmerge v63.0.0 ('Everything') 32-bit
Writing library : libebml v1.4.2 + libmatroska v1.6.4

Video
ID : 1
Format : AVC
Format/Info : Advanced Video Codec
Format profile : High@L4
Format settings : CABAC / 4 Ref Frames
Format settings, CABAC : Yes
Format settings, Reference frames : 4 frames
Codec ID : V_MPEG4/ISO/AVC
Duration : 52 min 35 s
Bit rate : 4 500 kb/s
Width : 1 920 pixels
Height : 1 080 pixels
Display aspect ratio : 16:9
Frame rate mode : Constant
Frame rate : 23.976 (24000/1001) FPS
Color space : YUV
Chroma subsampling : 4:2:0
Bit depth : 8 bits
Scan type : Progressive
Bits/(Pixel*Frame) : 0.091
Stream size : 1.63 GiB (93%)
Writing library : x264 core 164 r3107 a8b68eb
Encoding settings : cabac=1 / ref=4 / deblock=1:0:0 / analyse=0x3:0x113 / me=hex / subme=8 / psy=1 / psy_rd=1.00:0.00 / mixed_ref=1 / me_range=16 / chroma_me=1 / trellis=2 / 8x8dct=1 / cqm=0 / deadzone=21,11 / fast_pskip=1 / chroma_qp_offset=-2 / threads=12 / lookahead_threads=2 / sliced_threads=0 / nr=0 / decimate=1 / interlaced=0 / bluray_compat=0 / stitchable=1 / constrained_intra=0 / bframes=3 / b_pyramid=2 / b_adapt=1 / b_bias=0 / direct=3 / weightb=1 / open_gop=0 / weightp=2 / keyint=24 / keyint_min=2 / scenecut=0 / intra_refresh=0 / rc_lookahead=24 / rc=2pass / mbtree=1 / bitrate=4500 / ratetol=1.0 / qcomp=0.60 / qpmin=0 / qpmax=69 / qpstep=4 / cplxblur=20.0 / qblur=0.5 / vbv_maxrate=5400 / vbv_bufsize=4500 / nal_hrd=none / filler=0 / ip_ratio=1.40 / aq=1:1.00
Default : Yes
Forced : No
Color range : Limited
Color primaries : BT.709
Transfer characteristics : BT.709
Matrix coefficients : BT.709

Audio #1
ID : 2
Format : E-AC-3
Format/Info : Enhanced AC-3
Commercial name : Dolby Digital Plus
Codec ID : A_EAC3
Duration : 52 min 35 s
Bit rate mode : Constant
Bit rate : 128 kb/s
Channel(s) : 2 channels
Channel layout : L R
Sampling rate : 48.0 kHz
Frame rate : 31.250 FPS (1536 SPF)
Compression mode : Lossy
Stream size : 48.2 MiB (3%)
Title : Mexico
Language : Spanish
Service kind : Complete Main
Default : Yes
Forced : No

Audio #2
ID : 3
Format : E-AC-3
Format/Info : Enhanced AC-3
Commercial name : Dolby Digital Plus
Codec ID : A_EAC3
Duration : 52 min 35 s
Bit rate mode : Constant
Bit rate : 192 kb/s
Channel(s) : 6 channels
Channel layout : L R C LFE Ls Rs
Sampling rate : 48.0 kHz
Frame rate : 31.250 FPS (1536 SPF)
Compression mode : Lossy
Stream size : 72.2 MiB (4%)
Language : English
Service kind : Complete Main
Default : No
Forced : No

Text #1
ID : 4
Format : UTF-8
Codec ID : S_TEXT/UTF8
Codec ID/Info : UTF-8 Plain Text
Duration : 51 min 47 s
Bit rate : 56 b/s
Frame rate : 0.230 FPS
Count of elements : 716
Stream size : 21.4 KiB (0%)
Title : Mexico
Language : Spanish
Default : No
Forced : No

Text #2
ID : 5
Format : UTF-8
Codec ID : S_TEXT/UTF8
Codec ID/Info : UTF-8 Plain Text
Duration : 52 min 21 s
Bit rate : 69 b/s
Frame rate : 0.289 FPS
Count of elements : 907
Stream size : 26.8 KiB (0%)
Title : SDH
Language : English
Default : No
Forced : No

Menu
00:51:54.000 : en:Credits

DESCARGA.PNG



⭐ 1 LINK MKV VIP ⭐

Mega.png

Tenemos TODO el material de Club-HD disponible por Mega, enlaces 100% activos y online hasta la fecha

Llévate tus cuentas Mega PRO III gratis con tu membresía VIP!
Todos los posts vivos con links de Mega.
Todo el material de Club-HD desbloqueado y sin publicidad.

Obtén más información sobre nuestras Membresías VIP

LINKS FREE PÚBLICOS

1cloudfile.png


¡Click aquí para descargar desde 1cloudfile!
 
Volver