• Este aviso va dirigido a todos los nuevos miembros recien llegados a Club-HD. Les recordamos que la direccion URL de este sitio web es , asi que deben acceder únicamente por esta URL. Sean todos bienvenidos al Club!

No se lo digas a nadie (1998) 480p DVDRip Audio Latino (Drama, Romance)

Alsamishak

Well-known member
Uploader
Registrado
20 Oct 2013
Mensajes
72
Puntos de reacción
409
Puntos
53




Título Original: No se lo digas a nadie
Año: 1998
Duración: 111 min.
País: Perú.
Director: Francisco J. Lombardi
Reparto: Santiago Magill, Lucía Jiménez, Christian Meier, Carme Elías, Hernán Romero, Giovanni Ciccia, Carlos Fuentes, Gianfranco Brero, Emilram Cossio.
Productora: Coproducción Perú-España; Lola Films S. A. / Inca Films
Género: Drama. Romance




Un joven acomodado de la alta sociedad peruana decide huir del entorno social y familiar en el que vive para intentar encontrar su identidad sexual, marcada desde su juventud por el abuso de las drogas y el alcohol. Basada en la novela del peruano Jaime Baily.
























Código:
Format                                   : Matroska
Format version                           : Version 4 / Version 2
File size                                : 1.55 GiB
Duration                                 : 1 h 48 min
Overall bit rate mode                    : Variable
Overall bit rate                         : 2 041 kb/s
Encoded date                             : UTC 2018-03-09 20:50:54
Writing application                      : mkvmerge v20.0.0 ('I Am The Sun') 64-bit
Writing library                          : libebml v1.3.5 + libmatroska v1.4.8

Video
ID                                       : 1
Format                                   : MPEG-4 Visual
Format profile                           : Advanced Simple@L5
Format settings                          : BVOP1 / Custom Matrix
Format settings, BVOP                    : 1
Format settings, QPel                    : No
Format settings, GMC                     : No warppoints
Format settings, Matrix                  : Custom
Codec ID                                 : V_MS/VFW/FOURCC / XVID
Codec ID/Hint                            : XviD
Duration                                 : 1 h 48 min
Bit rate                                 : 1 918 kb/s
Width                                    : 720 pixels
Height                                   : 400 pixels
Display aspect ratio                     : 16:9
Frame rate mode                          : Constant
Frame rate                               : 23.976 (24000/1001) FPS
Color space                              : YUV
Chroma subsampling                       : 4:2:0
Bit depth                                : 8 bits
Scan type                                : Progressive
Compression mode                         : Lossy
Bits/(Pixel*Frame)                       : 0.278
Stream size                              : 1.46 GiB (94%)
Writing library                          : XviD 1.2.1 (UTC 2008-12-04)
Default                                  : Yes
Forced                                   : No

Audio
ID                                       : 2
Format                                   : MPEG Audio
Format version                           : Version 1
Format profile                           : Layer 3
Format settings                          : Joint stereo
Codec ID                                 : A_MPEG/L3
Codec ID/Hint                            : MP3
Duration                                 : 1 h 48 min
Bit rate mode                            : Variable
Bit rate                                 : 121 kb/s
Nominal bit rate                         : 128 kb/s
Channel(s)                               : 2 channels
Sampling rate                            : 48.0 kHz
Frame rate                               : 41.667 FPS (1152 SPF)
Compression mode                         : Lossy
Stream size                              : 94.2 MiB (6%)
Writing library                          : LAME3.98r
Encoding settings                        : -m j -V 4 -q 2 -lowpass 17 --abr 128
Default                                  : Yes
Forced                                   : No
★ CONTRASEÑA ★


★ DESCARGA ★
Todos los links son Intercambiables!

Enlaces de Mega y Google Drive solo disponibles para Miembros VIP

Compra tu Membresía VIP y apoya a Club-HD!

ATENCIÓN! Tenemos TODO el material de Club-HD disponible por Mega y Google Drive, enlaces 100% activos y online hasta la fecha

Llévate tus cuentas Mega PRO II gratis con tu membresía VIP!
Todos los posts vivos con links de Mega y Google Drive.
Todo el material de Club-HD desbloqueado y sin publicidad.

Click Aquí para más información.

Enlaces de Mega y Google Drive solo disponibles para Miembros VIP

Compra tu Membresía VIP y apoya a Club-HD!

ATENCIÓN! Tenemos TODO el material de Club-HD disponible por Mega y Google Drive, enlaces 100% activos y online hasta la fecha

Llévate tus cuentas Mega PRO II gratis con tu membresía VIP!
Todos los posts vivos con links de Mega y Google Drive.
Todo el material de Club-HD desbloqueado y sin publicidad.

Click Aquí para más información.

Para ver este contenido oculto, debes dar click en una de las siguientes reacciones: Like Like, Love Love, Haha Haha, Wow Wow, Sad Sad, Angry Angry

Para ver este contenido oculto, debes dar click en una de las siguientes reacciones: Like Like, Love Love, Haha Haha, Wow Wow, Sad Sad, Angry Angry
 
Última edición:

homero

Member
Registrado
27 Ago 2012
Mensajes
505
Puntos de reacción
21
Puntos
18
Revolver pone orden, yo te avise , estan subiendo cualquier porqueria y en mala calidad
 

Max

Admin
Miembro del Staff
Administrador
Registrado
8 Ago 2012
Mensajes
5,208
Puntos de reacción
22,003
Puntos
113

CinefiloCool

Need, Search, Find, Share
Colaborador
Miembro VIP
Registrado
6 Abr 2017
Mensajes
483
Puntos de reacción
4,175
Puntos
93
Ubicación
zion, Rivendel, Hill Valley, pandora, Coruscant o
Por esta razón:


Además viendo los datos tecnicos del ripeo, se ve que es uno muy decente. :)



Y esto es para vos pichon G0L_T G4RT_2 :martillo:
Baia Baia Mlevol0 el Jefazo estudiando el Avisynth :eek:dio: tongue
a ver si luego me da unas clases no? :call::yessir: es que no creo entender muy bien lo de los plugins y solo lo conozco por la superficie haha... l0l
 
  • Like
Reacciones: Max

Usuarios Que Están Viendo Este Tema (Total: 1, Miembros: 0, Invitados: 1)

Arriba