Phantom (2013) 1080p BDRip Dual Latino-Inglés [Subt. Esp.-Ing.] (Thriller. Submarinos)

Ivanovich

Well-known member
Miembro del Staff
Moderador
Uploader
Registro
13 Nov 2015
Mensajes
314

Rep:



★ FICHA TÉCNICA ★
Título original: Phantom
Año: 2013
Duración: 97 min.
País: Estados Unidos
Dirección: Todd Robinson
Guion: Todd Robinson
Reparto: Ed Harris, David Duchovny, William Fichtner, Lance Henriksen, Johnathon Schaech, Jason Beghe, Sean Patrick Flanery, Jason Gray-Stanford, Julian Adams
Productora: RCR Media Group / Solar Filmworks
Género: Thriller | Submarinos​


★ SINOPSIS ★
Mientras la tensión entre las grandes superpotencias crece, los Estados Unidos realizan maniobras submarinas en el Pacífico. De la tripulación forma parte el capitán Dmitri Zubov, un experto marino que vive atormentado por su pasado. La misión consiste en averiguar cuál es el objetivo del submarino soviético B756. Cuando el B756 deja de emitir un informe de posición, el comando Fleet da al buque por desaparecido. Mientras tanto, en las profundidades del Pacífico, el capitán Zubov y la tripulación del B-756 descubrirán un complot que podría destruir a la humanidad.​

Puntuación en IMDB 5.9


★ TRAILER ★

★ CAPTURAS ★













★ MEDIAINFO ★
Código:
General
Complete name                            : The Time Machine (1960) 1080p BDRip Latino-Ingles.mkv
Format                                   : Matroska
Format version                           : Version 4 / Version 2
File size                                : 7.97 GiB
Duration                                 : 1 h 42 min
Overall bit rate                         : 11.1 Mb/s
Movie name                               : ClubHD 
Encoded date                             : UTC 2018-04-26 20:18:22
Writing application                      : mkvmerge v20.0.0 ('I Am The Sun') 64-bit
Writing library                          : libebml v1.3.5 + libmatroska v1.4.8
 
Video
ID                                       : 1
Format                                   : AVC
Format/Info                              : Advanced Video Codec
Format profile                           : High@L4.1
Format settings                          : CABAC / 4 Ref Frames
Format settings, CABAC                   : Yes
Format settings, RefFrames               : 4 frames
Codec ID                                 : V_MPEG4/ISO/AVC
Duration                                 : 1 h 42 min
Bit rate                                 : 10 000 kb/s
Width                                    : 1 920 pixels
Height                                   : 1 080 pixels
Display aspect ratio                     : 16:9
Frame rate mode                          : Constant
Frame rate                               : 23.976 (24000/1001) FPS
Color space                              : YUV
Chroma subsampling                       : 4:2:0
Bit depth                                : 8 bits
Scan type                                : Progressive
Bits/(Pixel*Frame)                       : 0.201
Stream size                              : 7.17 GiB (90%)
Title                                    : The Time Machine (1960) 1080p BDRip Latino-Ingles
Default                                  : Yes
Forced                                   : No
 
Audio #1
ID                                       : 2
Format                                   : AC-3
Format/Info                              : Audio Coding 3
Codec ID                                 : A_AC3
Duration                                 : 1 h 42 min
Bit rate mode                            : Constant
Bit rate                                 : 448 kb/s
Channel(s)                               : 1 channel
Channel positions                        : Front: C
Sampling rate                            : 48.0 kHz
Frame rate                               : 31.250 FPS (1536 SPF)
Bit depth                                : 16 bits
Compression mode                         : Lossy
Stream size                              : 329 MiB (4%)
Title                                    : Latino
Language                                 : Spanish
Service kind                             : Complete Main
Default                                  : Yes
Forced                                   : No
 
Audio #2
ID                                       : 3
Format                                   : AC-3
Format/Info                              : Audio Coding 3
Codec ID                                 : A_AC3
Duration                                 : 1 h 42 min
Bit rate mode                            : Constant
Bit rate                                 : 640 kb/s
Channel(s)                               : 6 channels
Channel positions                        : Front: L C R, Side: L R, LFE
Sampling rate                            : 48.0 kHz
Frame rate                               : 31.250 FPS (1536 SPF)
Bit depth                                : 16 bits
Compression mode                         : Lossy
Stream size                              : 470 MiB (6%)
Title                                    : Ingles
Language                                 : English
Service kind                             : Complete Main
Default                                  : No
Forced                                   : No
 
Text #1
ID                                       : 4
Format                                   : PGS
Muxing mode                              : zlib
Codec ID                                 : S_HDMV/PGS
Codec ID/Info                            : Picture based subtitle format used on BDs/HD-DVDs
Duration                                 : 1 h 40 min
Bit rate                                 : 19.1 kb/s
Count of elements                        : 1740
Stream size                              : 13.7 MiB (0%)
Title                                    : Sub. Español Latino
Language                                 : Spanish
Default                                  : No
Forced                                   : No
 
Text #2
ID                                       : 5
Format                                   : PGS
Muxing mode                              : zlib
Codec ID                                 : S_HDMV/PGS
Codec ID/Info                            : Picture based subtitle format used on BDs/HD-DVDs
Duration                                 : 1 h 42 min
Bit rate                                 : 20.4 kb/s
Count of elements                        : 1664
Stream size                              : 14.9 MiB (0%)
Title                                    : Sub. Ingles
Language                                 : English
Default                                  : No
Forced                                   : No[/CENTER]

★ DESCARGA ★
Todos los links son Intercambiables!


Enlaces de Mega y Google Drive solo disponibles para Miembros VIP

Compra tu Membresía VIP y apoya a Club-HD!

ATENCIÓN! Tenemos TODO el material de Club-HD disponible por Mega y Google Drive, enlaces 100% activos y online hasta la fecha

Llévate tus cuentas Mega PRO III gratis con tu membresía VIP!
Todos los posts vivos con links de Mega y Google Drive.
Todo el material de Club-HD desbloqueado y sin publicidad.

Click Aquí para más información.

Enlaces de Mega y Google Drive solo disponibles para Miembros VIP

Compra tu Membresía VIP y apoya a Club-HD!

ATENCIÓN! Tenemos TODO el material de Club-HD disponible por Mega y Google Drive, enlaces 100% activos y online hasta la fecha

Llévate tus cuentas Mega PRO III gratis con tu membresía VIP!
Todos los posts vivos con links de Mega y Google Drive.
Todo el material de Club-HD desbloqueado y sin publicidad.

Click Aquí para más información.

Para ver este contenido oculto, debes dar click en una de las siguientes reacciones : Like Like, Love Love, Haha Haha, Wow Wow, Sad Sad, Angry Angry

Para ver este contenido oculto, debes dar click en una de las siguientes reacciones : Like Like, Love Love, Haha Haha, Wow Wow, Sad Sad, Angry Angry
★ CONTRASEÑA ★
[SIZE=6]www.club-hd.com[/SIZE]

Uploaded.net, el filehost recomendado por Club-HD. Si piensan comprar una cuenta premium, pueden hacerlo desde el siguiente banner, de esta manera se ganarían el privilegio de que les resubamos cualquier aporte perdido de Club-HD!




 
Última edición:

Usuarios Que Están Viendo Este Tema (Total: 1, Miembros: 0, Invitados: 1)

Quién Leyó Este Tema (Total Miembros: 2)

Arriba