EN EMISION Power Book II: Ghost S04E01->E03 'Part One' (2024) 1080p AMZN WEB-DL Latino (Serie de TV. Drama)

LuchoO

責任者

Moderador
Uploader
Registro
15 Ago 2015
Mensajes
1.940
Reacciones (ptje)
29.011

Power.bookII.png



FICHA.TECNICA.png


Captura1.JPG


SINOPSIS.PNG



Retomando solo unos días después del final de "Power", esta serie secuela sigue a Tariq navegando en su nueva vida, en la que su deseo de deshacerse del legado de su padre se enfrenta a la creciente presión para salvar a su familia.

7.5



TRAILER.PNG



CAPTURAS.PNG


PW.0001.jpeg


PW.0002.jpeg


PW.0003.jpeg


PW.0004.jpeg


PW.0005.jpeg


MEDIAINFO.PNG

General
Complete name : Power Book II Ghost S04E01 - I Dont Die Easy [1080p].mkv
Format : Matroska
Format version : Version 4
File size : 4.03 GiB
Duration : 58 min 55 s
Overall bit rate : 9 795 kb/s
Frame rate : 23.976 FPS
Movie name : [Club-HD] Power Book II, Ghost S04E01 - I Dont Die Easy [1080p].mkv
Encoded date : 2024-06-07 17:10:36 UTC
Writing application : mkvmerge v63.0.0 ('Everything') 32-bit
Writing library : libebml v1.4.2 + libmatroska v1.6.4

Video
ID : 1
Format : AVC
Format/Info : Advanced Video Codec
Format profile : High@L4
Format settings : CABAC / 4 Ref Frames
Format settings, CABAC : Yes
Format settings, Reference frames : 4 frames
Codec ID : V_MPEG4/ISO/AVC
Duration : 58 min 55 s
Bit rate mode : Constant
Bit rate : 8 512 kb/s
Nominal bit rate : 10 000 kb/s
Width : 1 920 pixels
Height : 1 080 pixels
Display aspect ratio : 16:9
Frame rate mode : Constant
Frame rate : 23.976 (24000/1001) FPS
Color space : YUV
Chroma subsampling : 4:2:0
Bit depth : 8 bits
Scan type : Progressive
Bits/(Pixel*Frame) : 0.171
Stream size : 3.50 GiB (87%)
Default : Yes
Forced : No
Color range : Limited
Color primaries : BT.709
Transfer characteristics : BT.709
Matrix coefficients : BT.709

Audio #1
ID : 2
Format : E-AC-3
Format/Info : Enhanced AC-3
Commercial name : Dolby Digital Plus
Codec ID : A_EAC3
Duration : 58 min 55 s
Bit rate mode : Constant
Bit rate : 640 kb/s
Channel(s) : 6 channels
Channel layout : L R C LFE Ls Rs
Sampling rate : 48.0 kHz
Frame rate : 31.250 FPS (1536 SPF)
Compression mode : Lossy
Stream size : 270 MiB (7%)
Title : Spanish (Latin America)
Language : Spanish
Service kind : Complete Main
Default : Yes
Forced : No

Audio #2
ID : 3
Format : E-AC-3
Format/Info : Enhanced AC-3
Commercial name : Dolby Digital Plus
Codec ID : A_EAC3
Duration : 58 min 55 s
Bit rate mode : Constant
Bit rate : 640 kb/s
Channel(s) : 6 channels
Channel layout : L R C LFE Ls Rs
Sampling rate : 48.0 kHz
Frame rate : 31.250 FPS (1536 SPF)
Compression mode : Lossy
Stream size : 270 MiB (7%)
Language : English
Service kind : Complete Main
Default : No
Forced : No

Text #1
ID : 4
Format : UTF-8
Codec ID : S_TEXT/UTF8
Codec ID/Info : UTF-8 Plain Text
Duration : 58 min 0 s
Bit rate : 94 b/s
Frame rate : 0.363 FPS
Count of elements : 1264
Stream size : 40.0 KiB (0%)
Title : Spanish (Latin America) (SDH)
Language : Spanish
Default : No
Forced : No

Text #2
ID : 5
Format : UTF-8
Codec ID : S_TEXT/UTF8
Codec ID/Info : UTF-8 Plain Text
Duration : 58 min 10 s
Bit rate : 100 b/s
Frame rate : 0.356 FPS
Count of elements : 1243
Stream size : 42.8 KiB (0%)
Title : SDH
Language : English
Default : No
Forced : No


DESCARGA.PNG


"Un agradecimiento especial a nuestra amigo'Richter' Por compartir este 1º Capítulo de la Temporada Final de esta buena serie."


⭐ 1 LINK MKV VIP ⭐

Mega.png

Tenemos TODO el material de Club-HD disponible por Mega, enlaces 100% activos y online hasta la fecha

Llévate tus cuentas Mega PRO III gratis con tu membresía VIP!
Todos los posts vivos con links de Mega.
Todo el material de Club-HD desbloqueado y sin publicidad.

Obtén más información sobre nuestras Membresías VIP


LINKS FREE PÚBLICOS

Fireload.png


¡Click aquí para descargar desde Fireload!


1cloudfile.png


¡Click aquí para descargar desde 1cloudfile!
 
Volver