Step Up Revolution (2012) 1080p BDRip Dual Latino-Inglés [Subt. Esp-Ing] (Drama)

Maestro Revolver

Well-known member
Miembro del Staff
Administrador
Registro
9 Ago 2012
Mensajes
3.569
Reacciones
59.471
Puntos
113

Reputation:


Aporte Recuperado gracias a nuestro amigo sharklui







TÍTULO ORIGINAL: Step Up Revolution (Step Up 4)
AÑO: 2012
DURACIÓN: 99 min.
PAÍS: USA
DIRECTOR: Scott Speer
GUIÓN: Jenny Mayer
REPARTO: Kathryn McCormick, Ryan Guzman, Stephen Boss, Chadd Smith, Megan Boone, Jessica Guadix, Morgane Slemp, Cleopatra Coleman, Tommy Dewey, Tamara Jones
PRODUCTORA: Summit Entertiainment / Offspring Entertainment
GÉNERO: Drama | Secuela. 3-D. Baile
http://www.imdb.com/title/tt1800741/






La historia se centra en una joven "niña de papá", que se enamora del líder de un grupo de baile que organiza flashmobs por amor al arte. Cuando el padre de ésta quiere demoler el barrio donde viven los bailarines, la chica insta sus compañeros de baile a que utilicen los flashmobs para reivindicar. Nueva entrega de la saga Step Up.
























La pelicula NO tiene ninguna marca... solo colocamos el nombre de esta web en las capturas






Código:
General
Format                           : Matroska
Format version                   : Version 2
File size                        : 8.54 GiB
Duration                         : 1h 38mn
Overall bit rate                 : 12.4 Mbps
Movie name                       : www.club-hd.com
Encoded date                     : UTC 2012-11-10 16:35:31
Writing application              : mkvmerge v5.7.0 ('The Whirlwind') built on Jul  8 2012 20:08:51
Writing library                  : libebml v1.2.3 + libmatroska v1.3.0

Video
ID                               : 1
Format                           : AVC
Format/Info                      : Advanced Video Codec
Format profile                   : High@L4.1
Format settings, CABAC           : Yes
Format settings, ReFrames        : 5 frames
Codec ID                         : V_MPEG4/ISO/AVC
Duration                         : 1h 38mn
Bit rate                         : 9 597 Kbps
Width                            : 1 920 pixels
Height                           : 800 pixels
Display aspect ratio             : 2.40:1
Frame rate                       : 23.976 fps
Color space                      : YUV
Chroma subsampling               : 4:2:0
Bit depth                        : 8 bits
Scan type                        : Progressive
Bits/(Pixel*Frame)               : 0.261
Stream size                      : 6.44 GiB (75%)
Title                            : www.club-hd.com
Writing library                  : x264 core 122 r2184 5c85e0a
Language                         : English
Default                          : Yes
Forced                           : No

Audio #1
ID                               : 2
Format                           : AC-3
Format/Info                      : Audio Coding 3
Mode extension                   : CM (complete main)
Codec ID                         : A_AC3
Duration                         : 1h 38mn
Bit rate mode                    : Constant
Bit rate                         : 640 Kbps
Channel(s)                       : 6 channels
Channel positions                : Front: L C R, Side: L R, LFE
Sampling rate                    : 48.0 KHz
Bit depth                        : 16 bits
Compression mode                 : Lossy
Stream size                      : 452 MiB (5%)
Title                            : www.club-hd.com  >>  Latino AC3 5.1
Language                         : Spanish
Default                          : Yes
Forced                           : No

Audio #2
ID                               : 3
Format                           : AC-3
Format/Info                      : Audio Coding 3
Mode extension                   : CM (complete main)
Codec ID                         : A_AC3
Duration                         : 1h 38mn
Bit rate mode                    : Constant
Bit rate                         : 640 Kbps
Channel(s)                       : 6 channels
Channel positions                : Front: L C R, Side: L R, LFE
Sampling rate                    : 48.0 KHz
Bit depth                        : 16 bits
Compression mode                 : Lossy
Stream size                      : 452 MiB (5%)
Title                            : www.club-hd.com  >>  Inglés AC3 5.1
Language                         : English
Default                          : No
Forced                           : No

Audio #3
ID                               : 4
Format                           : DTS
Format/Info                      : Digital Theater Systems
Codec ID                         : A_DTS
Duration                         : 1h 38mn
Bit rate mode                    : Constant
Bit rate                         : 1 510 Kbps
Channel(s)                       : 6 channels
Channel positions                : Front: L C R, Side: L R, LFE
Sampling rate                    : 48.0 KHz
Bit depth                        : 24 bits
Compression mode                 : Lossy
Stream size                      : 1.04 GiB (12%)
Title                            : www.club-hd.com  >>  Inglés DTS 5.1
Language                         : English
Default                          : No
Forced                           : No

Text #1
ID                               : 5
Format                           : UTF-8
Codec ID                         : S_TEXT/UTF8
Codec ID/Info                    : UTF-8 Plain Text
Language                         : Spanish
Default                          : No
Forced                           : No

Text #2
ID                               : 6
Format                           : UTF-8
Codec ID                         : S_TEXT/UTF8
Codec ID/Info                    : UTF-8 Plain Text
Language                         : English
Default                          : No
Forced                           : No

Menu
00:00:00.000                     : en:00:00:00.000
00:05:36.836                     : en:00:05:36.836
00:07:25.236                     : en:00:07:25.236
00:11:46.915                     : en:00:11:46.915
00:14:00.465                     : en:00:14:00.465
00:16:54.513                     : en:00:16:54.513
00:20:22.680                     : en:00:20:22.680
00:23:16.228                     : en:00:23:16.228
00:27:37.990                     : en:00:27:37.990
00:32:30.323                     : en:00:32:30.323
00:36:58.383                     : en:00:36:58.383
00:39:49.387                     : en:00:39:49.387
00:42:43.478                     : en:00:42:43.478
00:45:50.081                     : en:00:45:50.081
00:49:37.141                     : en:00:49:37.141
00:56:35.642                     : en:00:56:35.642
00:58:43.979                     : en:00:58:43.979
01:02:47.097                     : en:01:02:47.097
01:07:05.939                     : en:01:07:05.939
01:11:52.391                     : en:01:11:52.391
01:15:35.072                     : en:01:15:35.072
01:17:22.847                     : en:01:17:22.847
01:26:01.865                     : en:01:26:01.865
01:31:32.195                     : en:01:31:32.195







Código:
www.club-hd.com[/CENTER]







Todos los links son Intercambiables!





Enlaces de Mega y Fireload solo disponibles para Miembros VIP

Compra tu Membresía VIP y apoya a Club-HD!

ATENCIÓN! Tenemos TODO el material de Club-HD disponible por Mega y Fireload, enlaces 100% activos y online hasta la fecha

Llévate tus cuentas Mega PRO II gratis con tu membresía VIP!
Todos los posts vivos con links de Mega y Fireload.
Todo el material de Club-HD desbloqueado y sin publicidad.

Click Aquí para más información.




Enlaces de Mega y Fireload solo disponibles para Miembros VIP

Compra tu Membresía VIP y apoya a Club-HD!

ATENCIÓN! Tenemos TODO el material de Club-HD disponible por Mega y Fireload, enlaces 100% activos y online hasta la fecha

Llévate tus cuentas Mega PRO II gratis con tu membresía VIP!
Todos los posts vivos con links de Mega y Fireload.
Todo el material de Club-HD desbloqueado y sin publicidad.

Click Aquí para más información.



Para ver este contenido oculto, debes dar click en una de las siguientes reacciones : Like Like, Love Love, Haha Haha, Wow Wow, Sad Sad, Angry Angry
 
Última edición:

Omar Herrera

Well-known member
Miembro del Staff
Súper Moderador
Registro
27 Ago 2012
Mensajes
1.234
Reacciones
326
Puntos
83
Edad
32
Ubicación
Managua

Reputation:

Excelente Trabajo Revolver, no soy fan de esta saga, solo vi la primera.. pero haces un buen trabajo mi amigos.
Saludos Desc_g_
 

arkkangeldark

Well-known member
Registro
27 Ago 2012
Mensajes
3.449
Reacciones
577
Puntos
113
Edad
34
Ubicación
Torreon Coahuila

Reputation:

gracias revolver por la peli, a disfrutarla este fin de semana, luego te cuento si tuve problemas con uploaded...saludos
 

Dracarys

Well-known member
Miembro del Staff
Súper Moderador
Uploader
Colaborador
Miembro VIP
Registro
29 Ago 2012
Mensajes
768
Reacciones
8.247
Puntos
93
Ubicación
Chile

Reputation:

Usuarios Que Están Viendo Este Tema (Total: 1, Miembros: 0, Invitados: 1)

Arriba