The Croods A New Age (2020) 3D H-SBS 1080p BDRip Dual Latino-Inglés [Subt. Esp] (Animación. Aventuras)

Rex

Ex Bebe

Moderador
Uploader
Registro
12 Mar 2018
Mensajes
1.322
Reacciones (ptje)
37.379
The%2BCroods%2BA%2BNew%2BAge%2B%25282020%2529%2B3D.png

[prebreak][/prebreak]

Sinopsis

Obligados a partir en busca de un nuevo lugar donde vivir, la primera familia prehistórica se aventura a explorar el mundo con el objetivo de localizar un lugar más seguro al que llamar hogar. Pero cuando encuentran un idílico paraíso amurallado que cumple con todas sus necesidades, se encuentran con que ese lugar esconde una sorpresa: hay otra familia que ya vive allí, los Masmejor. Y es que los Masmejor, con su elaborada casa en un árbol, sus asombrosas invenciones y sus enormes huertos, van un par de pasos por delante de los Croods en la escala evolutiva. Y cuando les reciben como sus primeros invitados, no tardan en surgir tensiones entre nuestros queridos cavernícolas y sus nuevos y modernos semejantes. Cuando todo parece perdido, una nueva amenaza embarca a las dos familias en una aventura épica más allá de la seguridad de la muralla, que les obligará a aparcar sus diferencias, aunar fuerzas y luchar por un futuro juntos.



MEDIAINFO
Código:
General
Unique ID                                : 127802387899118583217847419988482425589 (0x6025D83685248FB49B13D2B1ED3382F5)
Format                                   : Matroska
Format version                           : Version 4
File size                                : 13.5 GiB
Duration                                 : 1 h 35 min
Overall bit rate mode                    : Variable
Overall bit rate                         : 20.4 Mb/s
Movie name                               : The Croods A New Age (2020) 1080p 3D BluRay
Encoded date                             : UTC 2021-03-14 16:16:44
Writing application                      : mkvmerge v49.0.0 ('Sick Of Losing Soulmates') 64-bit
Writing library                          : libebml v1.4.0 + libmatroska v1.6.1

Video
ID                                       : 1
Format                                   : AVC
Format/Info                              : Advanced Video Codec
Format profile                           : [email protected]
Format settings                          : CABAC / 3 Ref Frames
Format settings, CABAC                   : Yes
Format settings, Reference frames        : 3 frames
Codec ID                                 : V_MPEG4/ISO/AVC
Duration                                 : 1 h 35 min
Bit rate                                 : 15.5 Mb/s
Width                                    : 1 920 pixels
Height                                   : 1 080 pixels
Display aspect ratio                     : 16:9
Frame rate mode                          : Constant
Frame rate                               : 23.976 (24000/1001) FPS
Color space                              : YUV
Chroma subsampling                       : 4:2:0
Bit depth                                : 8 bits
Scan type                                : Progressive
Bits/(Pixel*Frame)                       : 0.312
Stream size                              : 10.3 GiB (76%)
Writing library                          : x264 core 148
Encoding settings                        : cabac=1 / ref=3 / deblock=1:-1:-1 / analyse=0x3:0 / me=hex / subme=5 / psy=1 / psy_rd=1.00:0.00 / mixed_ref=0 / me_range=16 / chroma_me=1 / trellis=1 / 8x8dct=1 / cqm=0 / deadzone=21,11 / fast_pskip=0 / chroma_qp_offset=0 / threads=48 / lookahead_threads=8 / sliced_threads=0 / nr=0 / decimate=1 / interlaced=0 / bluray_compat=0 / constrained_intra=0 / bframes=2 / b_pyramid=0 / b_adapt=1 / b_bias=0 / direct=1 / weightb=0 / open_gop=0 / weightp=0 / keyint=24 / keyint_min=2 / scenecut=40 / intra_refresh=0 / rc=abr / mbtree=0 / bitrate=15500 / ratetol=1.0 / qcomp=0.60 / qpmin=0 / qpmax=69 / qpstep=4 / ip_ratio=1.40 / pb_ratio=1.30 / aq=1:1.00
Language                                 : English
Default                                  : Yes
Forced                                   : No
Color range                              : Limited
Color primaries                          : BT.709
Transfer characteristics                 : BT.709
Matrix coefficients                      : BT.709

Audio #1
ID                                       : 2
Format                                   : E-AC-3
Format/Info                              : Enhanced AC-3
Commercial name                          : Dolby Digital Plus
Format profile                           : Blu-ray Disc
Codec ID                                 : A_EAC3
Duration                                 : 1 h 35 min
Bit rate mode                            : Constant
Bit rate                                 : 768 kb/s
Channel(s)                               : 8 channels
Channel layout                           : L R C LFE Ls Rs Lb Rb
Sampling rate                            : 48.0 kHz
Frame rate                               : 31.250 FPS (1536 SPF)
Compression mode                         : Lossy
Stream size                              : 523 MiB (4%)
Title                                    : Latino E-AC3 7.1
Language                                 : Spanish
Service kind                             : Complete Main
Default                                  : No
Forced                                   : No

Audio #2
ID                                       : 3
Format                                   : AC-3
Format/Info                              : Audio Coding 3
Commercial name                          : Dolby Digital
Codec ID                                 : A_AC3
Duration                                 : 1 h 35 min
Bit rate mode                            : Constant
Bit rate                                 : 448 kb/s
Channel(s)                               : 6 channels
Channel layout                           : L R C LFE Ls Rs
Sampling rate                            : 48.0 kHz
Frame rate                               : 31.250 FPS (1536 SPF)
Compression mode                         : Lossy
Stream size                              : 305 MiB (2%)
Title                                    : Latino AC3 5.1
Language                                 : Spanish
Service kind                             : Complete Main
Default                                  : No
Forced                                   : No

Audio #3
ID                                       : 4
Format                                   : MLP FBA 16-ch
Format/Info                              : Meridian Lossless Packing FBA with 16-channel presentation
Commercial name                          : Dolby TrueHD with Dolby Atmos
Codec ID                                 : A_TRUEHD
Duration                                 : 1 h 35 min
Bit rate mode                            : Variable
Bit rate                                 : 3 095 kb/s
Maximum bit rate                         : 4 263 kb/s
Channel(s)                               : 8 channels
Channel layout                           : L R C LFE Ls Rs Lb Rb
Sampling rate                            : 48.0 kHz
Frame rate                               : 1 200.000 FPS (40 SPF)
Compression mode                         : Lossless
Stream size                              : 2.06 GiB (15%)
Title                                    : TrueHD 7.1 Atmos
Language                                 : English
Default                                  : Yes
Forced                                   : No
Number of dynamic objects                : 11
Bed channel count                        : 1 channel
Bed channel configuration                : LFE

Audio #4
ID                                       : 5
Format                                   : AC-3
Format/Info                              : Audio Coding 3
Commercial name                          : Dolby Digital
Codec ID                                 : A_AC3
Duration                                 : 1 h 35 min
Bit rate mode                            : Constant
Bit rate                                 : 448 kb/s
Channel(s)                               : 6 channels
Channel layout                           : L R C LFE Ls Rs
Sampling rate                            : 48.0 kHz
Frame rate                               : 31.250 FPS (1536 SPF)
Compression mode                         : Lossy
Stream size                              : 305 MiB (2%)
Title                                    : DD 5.1
Language                                 : English
Service kind                             : Complete Main
Default                                  : No
Forced                                   : No

Text #1
ID                                       : 6
Format                                   : UTF-8
Codec ID                                 : S_TEXT/UTF8
Codec ID/Info                            : UTF-8 Plain Text
Duration                                 : 1 h 19 min
Bit rate                                 : 0 b/s
Count of elements                        : 7
Stream size                              : 162 Bytes (0%)
Title                                    : Forzados
Language                                 : Spanish
Default                                  : Yes
Forced                                   : No

Text #2
ID                                       : 7
Format                                   : UTF-8
Codec ID                                 : S_TEXT/UTF8
Codec ID/Info                            : UTF-8 Plain Text
Duration                                 : 1 h 26 min
Bit rate                                 : 69 b/s
Count of elements                        : 1521
Stream size                              : 44.4 KiB (0%)
Title                                    : Completos
Language                                 : Spanish
Default                                  : No
Forced                                   : No

Text #3
ID                                       : 8
Format                                   : PGS
Muxing mode                              : zlib
Codec ID                                 : S_HDMV/PGS
Codec ID/Info                            : Picture based subtitle format used on BDs/HD-DVDs
Duration                                 : 1 h 34 min
Bit rate                                 : 65.7 kb/s
Count of elements                        : 3998
Stream size                              : 44.4 MiB (0%)
Title                                    : English-PGS
Language                                 : English
Default                                  : No
Forced                                   : No

Text #4
ID                                       : 9
Format                                   : PGS
Muxing mode                              : zlib
Codec ID                                 : S_HDMV/PGS
Codec ID/Info                            : Picture based subtitle format used on BDs/HD-DVDs
Duration                                 : 25 min 12 s
Bit rate                                 : 685 b/s
Count of elements                        : 16
Stream size                              : 127 KiB (0%)
Title                                    : PGS Forzados
Language                                 : Spanish
Default                                  : No
Forced                                   : No

Text #5
ID                                       : 10
Format                                   : PGS
Muxing mode                              : zlib
Codec ID                                 : S_HDMV/PGS
Codec ID/Info                            : Picture based subtitle format used on BDs/HD-DVDs
Duration                                 : 1 h 34 min
Bit rate                                 : 43.6 kb/s
Count of elements                        : 3056
Stream size                              : 29.4 MiB (0%)
Title                                    : PGS Completos
Language                                 : Spanish
Default                                  : No
Forced                                   : No

Menu
00:00:00.000                             : en:Chapter 01
00:06:36.562                             : en:Chapter 02
00:11:17.760                             : en:Chapter 03
00:18:01.288                             : en:Chapter 04
00:21:05.389                             : en:Chapter 05
00:25:45.085                             : en:Chapter 06
00:29:01.990                             : en:Chapter 07
00:34:01.706                             : en:Chapter 08
00:37:10.603                             : en:Chapter 09
00:43:43.037                             : en:Chapter 10
00:48:33.785                             : en:Chapter 11
00:52:16.675                             : en:Chapter 12
00:55:48.428                             : en:Chapter 13
00:59:50.128                             : en:Chapter 14
01:05:28.758                             : en:Chapter 15
01:09:06.725                             : en:Chapter 16
01:15:03.457                             : en:Chapter 17
01:21:30.594                             : en:Chapter 18
01:25:13.024                             : en:Chapter 19
01:27:39.128                             : en:Chapter 20

CAPTURAS

vlcsnap-2021-03-16-09h06m52s355.png

vlcsnap-2021-03-16-09h06m56s822.png

vlcsnap-2021-03-16-09h07m05s800.png

vlcsnap-2021-03-16-09h07m21s561.png



ENLACES VIP

FIRELOAD-VIP.png


Tenemos TODO el material de Club-HD disponible por Mega, enlaces 100% activos y online hasta la fecha

Llévate tus cuentas Mega PRO III gratis con tu membresía VIP!
Todos los posts vivos con links de Mega.
Todo el material de Club-HD desbloqueado y sin publicidad.

Obtén más información sobre nuestras Membresías VIP

MEGA-BANNER.png


Tenemos TODO el material de Club-HD disponible por Mega, enlaces 100% activos y online hasta la fecha

Llévate tus cuentas Mega PRO III gratis con tu membresía VIP!
Todos los posts vivos con links de Mega.
Todo el material de Club-HD desbloqueado y sin publicidad.

Obtén más información sobre nuestras Membresías VIP

ENLACES FREE

UPLOADED_BANNER.png


Para ver este contenido oculto, debes dar click en el botón "Like", o cualquiera de las otras reacciones:

Me Gusta Me Gusta, Me Encanta Me Encanta, Jaja Jaja, Wow Wow, Triste Triste, Molesto Molesto
NITROFLARE-BANNER.png


Para ver este contenido oculto, debes dar click en el botón "Like", o cualquiera de las otras reacciones:

Me Gusta Me Gusta, Me Encanta Me Encanta, Jaja Jaja, Wow Wow, Triste Triste, Molesto Molesto
FIRELOAD.png


Para ver este contenido oculto, debes dar click en el botón "Like", o cualquiera de las otras reacciones:

Me Gusta Me Gusta, Me Encanta Me Encanta, Jaja Jaja, Wow Wow, Triste Triste, Molesto Molesto
Mediafire.png


Para ver este contenido oculto, debes dar click en el botón "Like", o cualquiera de las otras reacciones:

Me Gusta Me Gusta, Me Encanta Me Encanta, Jaja Jaja, Wow Wow, Triste Triste, Molesto Molesto
CONTRASEÑA
Código:
www.club-hd.com
 
Última edición por un moderador:
The%2BCroods%2BA%2BNew%2BAge%2B%25282020%2529%2B3D.png

[prebreak][/prebreak]

Sinopsis

Obligados a partir en busca de un nuevo lugar donde vivir, la primera familia prehistórica se aventura a explorar el mundo con el objetivo de localizar un lugar más seguro al que llamar hogar. Pero cuando encuentran un idílico paraíso amurallado que cumple con todas sus necesidades, se encuentran con que ese lugar esconde una sorpresa: hay otra familia que ya vive allí, los Masmejor. Y es que los Masmejor, con su elaborada casa en un árbol, sus asombrosas invenciones y sus enormes huertos, van un par de pasos por delante de los Croods en la escala evolutiva. Y cuando les reciben como sus primeros invitados, no tardan en surgir tensiones entre nuestros queridos cavernícolas y sus nuevos y modernos semejantes. Cuando todo parece perdido, una nueva amenaza embarca a las dos familias en una aventura épica más allá de la seguridad de la muralla, que les obligará a aparcar sus diferencias, aunar fuerzas y luchar por un futuro juntos.



MEDIAINFO
Código:
General
Unique ID                                : 127802387899118583217847419988482425589 (0x6025D83685248FB49B13D2B1ED3382F5)
Format                                   : Matroska
Format version                           : Version 4
File size                                : 13.5 GiB
Duration                                 : 1 h 35 min
Overall bit rate mode                    : Variable
Overall bit rate                         : 20.4 Mb/s
Movie name                               : The Croods A New Age (2020) 1080p 3D BluRay
Encoded date                             : UTC 2021-03-14 16:16:44
Writing application                      : mkvmerge v49.0.0 ('Sick Of Losing Soulmates') 64-bit
Writing library                          : libebml v1.4.0 + libmatroska v1.6.1

Video
ID                                       : 1
Format                                   : AVC
Format/Info                              : Advanced Video Codec
Format profile                           : [email protected]
Format settings                          : CABAC / 3 Ref Frames
Format settings, CABAC                   : Yes
Format settings, Reference frames        : 3 frames
Codec ID                                 : V_MPEG4/ISO/AVC
Duration                                 : 1 h 35 min
Bit rate                                 : 15.5 Mb/s
Width                                    : 1 920 pixels
Height                                   : 1 080 pixels
Display aspect ratio                     : 16:9
Frame rate mode                          : Constant
Frame rate                               : 23.976 (24000/1001) FPS
Color space                              : YUV
Chroma subsampling                       : 4:2:0
Bit depth                                : 8 bits
Scan type                                : Progressive
Bits/(Pixel*Frame)                       : 0.312
Stream size                              : 10.3 GiB (76%)
Writing library                          : x264 core 148
Encoding settings                        : cabac=1 / ref=3 / deblock=1:-1:-1 / analyse=0x3:0 / me=hex / subme=5 / psy=1 / psy_rd=1.00:0.00 / mixed_ref=0 / me_range=16 / chroma_me=1 / trellis=1 / 8x8dct=1 / cqm=0 / deadzone=21,11 / fast_pskip=0 / chroma_qp_offset=0 / threads=48 / lookahead_threads=8 / sliced_threads=0 / nr=0 / decimate=1 / interlaced=0 / bluray_compat=0 / constrained_intra=0 / bframes=2 / b_pyramid=0 / b_adapt=1 / b_bias=0 / direct=1 / weightb=0 / open_gop=0 / weightp=0 / keyint=24 / keyint_min=2 / scenecut=40 / intra_refresh=0 / rc=abr / mbtree=0 / bitrate=15500 / ratetol=1.0 / qcomp=0.60 / qpmin=0 / qpmax=69 / qpstep=4 / ip_ratio=1.40 / pb_ratio=1.30 / aq=1:1.00
Language                                 : English
Default                                  : Yes
Forced                                   : No
Color range                              : Limited
Color primaries                          : BT.709
Transfer characteristics                 : BT.709
Matrix coefficients                      : BT.709

Audio #1
ID                                       : 2
Format                                   : E-AC-3
Format/Info                              : Enhanced AC-3
Commercial name                          : Dolby Digital Plus
Format profile                           : Blu-ray Disc
Codec ID                                 : A_EAC3
Duration                                 : 1 h 35 min
Bit rate mode                            : Constant
Bit rate                                 : 768 kb/s
Channel(s)                               : 8 channels
Channel layout                           : L R C LFE Ls Rs Lb Rb
Sampling rate                            : 48.0 kHz
Frame rate                               : 31.250 FPS (1536 SPF)
Compression mode                         : Lossy
Stream size                              : 523 MiB (4%)
Title                                    : Latino E-AC3 7.1
Language                                 : Spanish
Service kind                             : Complete Main
Default                                  : No
Forced                                   : No

Audio #2
ID                                       : 3
Format                                   : AC-3
Format/Info                              : Audio Coding 3
Commercial name                          : Dolby Digital
Codec ID                                 : A_AC3
Duration                                 : 1 h 35 min
Bit rate mode                            : Constant
Bit rate                                 : 448 kb/s
Channel(s)                               : 6 channels
Channel layout                           : L R C LFE Ls Rs
Sampling rate                            : 48.0 kHz
Frame rate                               : 31.250 FPS (1536 SPF)
Compression mode                         : Lossy
Stream size                              : 305 MiB (2%)
Title                                    : Latino AC3 5.1
Language                                 : Spanish
Service kind                             : Complete Main
Default                                  : No
Forced                                   : No

Audio #3
ID                                       : 4
Format                                   : MLP FBA 16-ch
Format/Info                              : Meridian Lossless Packing FBA with 16-channel presentation
Commercial name                          : Dolby TrueHD with Dolby Atmos
Codec ID                                 : A_TRUEHD
Duration                                 : 1 h 35 min
Bit rate mode                            : Variable
Bit rate                                 : 3 095 kb/s
Maximum bit rate                         : 4 263 kb/s
Channel(s)                               : 8 channels
Channel layout                           : L R C LFE Ls Rs Lb Rb
Sampling rate                            : 48.0 kHz
Frame rate                               : 1 200.000 FPS (40 SPF)
Compression mode                         : Lossless
Stream size                              : 2.06 GiB (15%)
Title                                    : TrueHD 7.1 Atmos
Language                                 : English
Default                                  : Yes
Forced                                   : No
Number of dynamic objects                : 11
Bed channel count                        : 1 channel
Bed channel configuration                : LFE

Audio #4
ID                                       : 5
Format                                   : AC-3
Format/Info                              : Audio Coding 3
Commercial name                          : Dolby Digital
Codec ID                                 : A_AC3
Duration                                 : 1 h 35 min
Bit rate mode                            : Constant
Bit rate                                 : 448 kb/s
Channel(s)                               : 6 channels
Channel layout                           : L R C LFE Ls Rs
Sampling rate                            : 48.0 kHz
Frame rate                               : 31.250 FPS (1536 SPF)
Compression mode                         : Lossy
Stream size                              : 305 MiB (2%)
Title                                    : DD 5.1
Language                                 : English
Service kind                             : Complete Main
Default                                  : No
Forced                                   : No

Text #1
ID                                       : 6
Format                                   : UTF-8
Codec ID                                 : S_TEXT/UTF8
Codec ID/Info                            : UTF-8 Plain Text
Duration                                 : 1 h 19 min
Bit rate                                 : 0 b/s
Count of elements                        : 7
Stream size                              : 162 Bytes (0%)
Title                                    : Forzados
Language                                 : Spanish
Default                                  : Yes
Forced                                   : No

Text #2
ID                                       : 7
Format                                   : UTF-8
Codec ID                                 : S_TEXT/UTF8
Codec ID/Info                            : UTF-8 Plain Text
Duration                                 : 1 h 26 min
Bit rate                                 : 69 b/s
Count of elements                        : 1521
Stream size                              : 44.4 KiB (0%)
Title                                    : Completos
Language                                 : Spanish
Default                                  : No
Forced                                   : No

Text #3
ID                                       : 8
Format                                   : PGS
Muxing mode                              : zlib
Codec ID                                 : S_HDMV/PGS
Codec ID/Info                            : Picture based subtitle format used on BDs/HD-DVDs
Duration                                 : 1 h 34 min
Bit rate                                 : 65.7 kb/s
Count of elements                        : 3998
Stream size                              : 44.4 MiB (0%)
Title                                    : English-PGS
Language                                 : English
Default                                  : No
Forced                                   : No

Text #4
ID                                       : 9
Format                                   : PGS
Muxing mode                              : zlib
Codec ID                                 : S_HDMV/PGS
Codec ID/Info                            : Picture based subtitle format used on BDs/HD-DVDs
Duration                                 : 25 min 12 s
Bit rate                                 : 685 b/s
Count of elements                        : 16
Stream size                              : 127 KiB (0%)
Title                                    : PGS Forzados
Language                                 : Spanish
Default                                  : No
Forced                                   : No

Text #5
ID                                       : 10
Format                                   : PGS
Muxing mode                              : zlib
Codec ID                                 : S_HDMV/PGS
Codec ID/Info                            : Picture based subtitle format used on BDs/HD-DVDs
Duration                                 : 1 h 34 min
Bit rate                                 : 43.6 kb/s
Count of elements                        : 3056
Stream size                              : 29.4 MiB (0%)
Title                                    : PGS Completos
Language                                 : Spanish
Default                                  : No
Forced                                   : No

Menu
00:00:00.000                             : en:Chapter 01
00:06:36.562                             : en:Chapter 02
00:11:17.760                             : en:Chapter 03
00:18:01.288                             : en:Chapter 04
00:21:05.389                             : en:Chapter 05
00:25:45.085                             : en:Chapter 06
00:29:01.990                             : en:Chapter 07
00:34:01.706                             : en:Chapter 08
00:37:10.603                             : en:Chapter 09
00:43:43.037                             : en:Chapter 10
00:48:33.785                             : en:Chapter 11
00:52:16.675                             : en:Chapter 12
00:55:48.428                             : en:Chapter 13
00:59:50.128                             : en:Chapter 14
01:05:28.758                             : en:Chapter 15
01:09:06.725                             : en:Chapter 16
01:15:03.457                             : en:Chapter 17
01:21:30.594                             : en:Chapter 18
01:25:13.024                             : en:Chapter 19
01:27:39.128                             : en:Chapter 20

CAPTURAS

vlcsnap-2021-03-16-09h06m52s355.png

vlcsnap-2021-03-16-09h06m56s822.png

vlcsnap-2021-03-16-09h07m05s800.png

vlcsnap-2021-03-16-09h07m21s561.png



ENLACES VIP

FIRELOAD-VIP.png


[Hidden content]

MEGA-BANNER.png


[Hidden content]

ENLACES FREE

UPLOADED_BANNER.png


[Hidden content]

NITROFLARE-BANNER.png


[Hidden content]

FIRELOAD.png


[Hidden content]

Mediafire.png
The%2BCroods%2BA%2BNew%2BAge%2B%25282020%2529%2B3D.png

[prebreak][/prebreak]

Sinopsis

Obligados a partir en busca de un nuevo lugar donde vivir, la primera familia prehistórica se aventura a explorar el mundo con el objetivo de localizar un lugar más seguro al que llamar hogar. Pero cuando encuentran un idílico paraíso amurallado que cumple con todas sus necesidades, se encuentran con que ese lugar esconde una sorpresa: hay otra familia que ya vive allí, los Masmejor. Y es que los Masmejor, con su elaborada casa en un árbol, sus asombrosas invenciones y sus enormes huertos, van un par de pasos por delante de los Croods en la escala evolutiva. Y cuando les reciben como sus primeros invitados, no tardan en surgir tensiones entre nuestros queridos cavernícolas y sus nuevos y modernos semejantes. Cuando todo parece perdido, una nueva amenaza embarca a las dos familias en una aventura épica más allá de la seguridad de la muralla, que les obligará a aparcar sus diferencias, aunar fuerzas y luchar por un futuro juntos.



MEDIAINFO
Código:
General
Unique ID                                : 127802387899118583217847419988482425589 (0x6025D83685248FB49B13D2B1ED3382F5)
Format                                   : Matroska
Format version                           : Version 4
File size                                : 13.5 GiB
Duration                                 : 1 h 35 min
Overall bit rate mode                    : Variable
Overall bit rate                         : 20.4 Mb/s
Movie name                               : The Croods A New Age (2020) 1080p 3D BluRay
Encoded date                             : UTC 2021-03-14 16:16:44
Writing application                      : mkvmerge v49.0.0 ('Sick Of Losing Soulmates') 64-bit
Writing library                          : libebml v1.4.0 + libmatroska v1.6.1

Video
ID                                       : 1
Format                                   : AVC
Format/Info                              : Advanced Video Codec
Format profile                           : [email protected]
Format settings                          : CABAC / 3 Ref Frames
Format settings, CABAC                   : Yes
Format settings, Reference frames        : 3 frames
Codec ID                                 : V_MPEG4/ISO/AVC
Duration                                 : 1 h 35 min
Bit rate                                 : 15.5 Mb/s
Width                                    : 1 920 pixels
Height                                   : 1 080 pixels
Display aspect ratio                     : 16:9
Frame rate mode                          : Constant
Frame rate                               : 23.976 (24000/1001) FPS
Color space                              : YUV
Chroma subsampling                       : 4:2:0
Bit depth                                : 8 bits
Scan type                                : Progressive
Bits/(Pixel*Frame)                       : 0.312
Stream size                              : 10.3 GiB (76%)
Writing library                          : x264 core 148
Encoding settings                        : cabac=1 / ref=3 / deblock=1:-1:-1 / analyse=0x3:0 / me=hex / subme=5 / psy=1 / psy_rd=1.00:0.00 / mixed_ref=0 / me_range=16 / chroma_me=1 / trellis=1 / 8x8dct=1 / cqm=0 / deadzone=21,11 / fast_pskip=0 / chroma_qp_offset=0 / threads=48 / lookahead_threads=8 / sliced_threads=0 / nr=0 / decimate=1 / interlaced=0 / bluray_compat=0 / constrained_intra=0 / bframes=2 / b_pyramid=0 / b_adapt=1 / b_bias=0 / direct=1 / weightb=0 / open_gop=0 / weightp=0 / keyint=24 / keyint_min=2 / scenecut=40 / intra_refresh=0 / rc=abr / mbtree=0 / bitrate=15500 / ratetol=1.0 / qcomp=0.60 / qpmin=0 / qpmax=69 / qpstep=4 / ip_ratio=1.40 / pb_ratio=1.30 / aq=1:1.00
Language                                 : English
Default                                  : Yes
Forced                                   : No
Color range                              : Limited
Color primaries                          : BT.709
Transfer characteristics                 : BT.709
Matrix coefficients                      : BT.709

Audio #1
ID                                       : 2
Format                                   : E-AC-3
Format/Info                              : Enhanced AC-3
Commercial name                          : Dolby Digital Plus
Format profile                           : Blu-ray Disc
Codec ID                                 : A_EAC3
Duration                                 : 1 h 35 min
Bit rate mode                            : Constant
Bit rate                                 : 768 kb/s
Channel(s)                               : 8 channels
Channel layout                           : L R C LFE Ls Rs Lb Rb
Sampling rate                            : 48.0 kHz
Frame rate                               : 31.250 FPS (1536 SPF)
Compression mode                         : Lossy
Stream size                              : 523 MiB (4%)
Title                                    : Latino E-AC3 7.1
Language                                 : Spanish
Service kind                             : Complete Main
Default                                  : No
Forced                                   : No

Audio #2
ID                                       : 3
Format                                   : AC-3
Format/Info                              : Audio Coding 3
Commercial name                          : Dolby Digital
Codec ID                                 : A_AC3
Duration                                 : 1 h 35 min
Bit rate mode                            : Constant
Bit rate                                 : 448 kb/s
Channel(s)                               : 6 channels
Channel layout                           : L R C LFE Ls Rs
Sampling rate                            : 48.0 kHz
Frame rate                               : 31.250 FPS (1536 SPF)
Compression mode                         : Lossy
Stream size                              : 305 MiB (2%)
Title                                    : Latino AC3 5.1
Language                                 : Spanish
Service kind                             : Complete Main
Default                                  : No
Forced                                   : No

Audio #3
ID                                       : 4
Format                                   : MLP FBA 16-ch
Format/Info                              : Meridian Lossless Packing FBA with 16-channel presentation
Commercial name                          : Dolby TrueHD with Dolby Atmos
Codec ID                                 : A_TRUEHD
Duration                                 : 1 h 35 min
Bit rate mode                            : Variable
Bit rate                                 : 3 095 kb/s
Maximum bit rate                         : 4 263 kb/s
Channel(s)                               : 8 channels
Channel layout                           : L R C LFE Ls Rs Lb Rb
Sampling rate                            : 48.0 kHz
Frame rate                               : 1 200.000 FPS (40 SPF)
Compression mode                         : Lossless
Stream size                              : 2.06 GiB (15%)
Title                                    : TrueHD 7.1 Atmos
Language                                 : English
Default                                  : Yes
Forced                                   : No
Number of dynamic objects                : 11
Bed channel count                        : 1 channel
Bed channel configuration                : LFE

Audio #4
ID                                       : 5
Format                                   : AC-3
Format/Info                              : Audio Coding 3
Commercial name                          : Dolby Digital
Codec ID                                 : A_AC3
Duration                                 : 1 h 35 min
Bit rate mode                            : Constant
Bit rate                                 : 448 kb/s
Channel(s)                               : 6 channels
Channel layout                           : L R C LFE Ls Rs
Sampling rate                            : 48.0 kHz
Frame rate                               : 31.250 FPS (1536 SPF)
Compression mode                         : Lossy
Stream size                              : 305 MiB (2%)
Title                                    : DD 5.1
Language                                 : English
Service kind                             : Complete Main
Default                                  : No
Forced                                   : No

Text #1
ID                                       : 6
Format                                   : UTF-8
Codec ID                                 : S_TEXT/UTF8
Codec ID/Info                            : UTF-8 Plain Text
Duration                                 : 1 h 19 min
Bit rate                                 : 0 b/s
Count of elements                        : 7
Stream size                              : 162 Bytes (0%)
Title                                    : Forzados
Language                                 : Spanish
Default                                  : Yes
Forced                                   : No

Text #2
ID                                       : 7
Format                                   : UTF-8
Codec ID                                 : S_TEXT/UTF8
Codec ID/Info                            : UTF-8 Plain Text
Duration                                 : 1 h 26 min
Bit rate                                 : 69 b/s
Count of elements                        : 1521
Stream size                              : 44.4 KiB (0%)
Title                                    : Completos
Language                                 : Spanish
Default                                  : No
Forced                                   : No

Text #3
ID                                       : 8
Format                                   : PGS
Muxing mode                              : zlib
Codec ID                                 : S_HDMV/PGS
Codec ID/Info                            : Picture based subtitle format used on BDs/HD-DVDs
Duration                                 : 1 h 34 min
Bit rate                                 : 65.7 kb/s
Count of elements                        : 3998
Stream size                              : 44.4 MiB (0%)
Title                                    : English-PGS
Language                                 : English
Default                                  : No
Forced                                   : No

Text #4
ID                                       : 9
Format                                   : PGS
Muxing mode                              : zlib
Codec ID                                 : S_HDMV/PGS
Codec ID/Info                            : Picture based subtitle format used on BDs/HD-DVDs
Duration                                 : 25 min 12 s
Bit rate                                 : 685 b/s
Count of elements                        : 16
Stream size                              : 127 KiB (0%)
Title                                    : PGS Forzados
Language                                 : Spanish
Default                                  : No
Forced                                   : No

Text #5
ID                                       : 10
Format                                   : PGS
Muxing mode                              : zlib
Codec ID                                 : S_HDMV/PGS
Codec ID/Info                            : Picture based subtitle format used on BDs/HD-DVDs
Duration                                 : 1 h 34 min
Bit rate                                 : 43.6 kb/s
Count of elements                        : 3056
Stream size                              : 29.4 MiB (0%)
Title                                    : PGS Completos
Language                                 : Spanish
Default                                  : No
Forced                                   : No

Menu
00:00:00.000                             : en:Chapter 01
00:06:36.562                             : en:Chapter 02
00:11:17.760                             : en:Chapter 03
00:18:01.288                             : en:Chapter 04
00:21:05.389                             : en:Chapter 05
00:25:45.085                             : en:Chapter 06
00:29:01.990                             : en:Chapter 07
00:34:01.706                             : en:Chapter 08
00:37:10.603                             : en:Chapter 09
00:43:43.037                             : en:Chapter 10
00:48:33.785                             : en:Chapter 11
00:52:16.675                             : en:Chapter 12
00:55:48.428                             : en:Chapter 13
00:59:50.128                             : en:Chapter 14
01:05:28.758                             : en:Chapter 15
01:09:06.725                             : en:Chapter 16
01:15:03.457                             : en:Chapter 17
01:21:30.594                             : en:Chapter 18
01:25:13.024                             : en:Chapter 19
01:27:39.128                             : en:Chapter 20

CAPTURAS

vlcsnap-2021-03-16-09h06m52s355.png

vlcsnap-2021-03-16-09h06m56s822.png

vlcsnap-2021-03-16-09h07m05s800.png

vlcsnap-2021-03-16-09h07m21s561.png



ENLACES VIP

FIRELOAD-VIP.png


[Hidden content]

MEGA-BANNER.png


[Hidden content]

ENLACES FREE

UPLOADED_BANNER.png


[Hidden content]

NITROFLARE-BANNER.png


[Hidden content]

FIRELOAD.png


[Hidden content]

Mediafire.png


[Hidden content]

CONTRASEÑA
Código:
www.club-hd.com


[Hidden content]

CONTRASEÑA
Código:
www.club-hd.com
 
Volver