The Dark Knight (2008) IMAX 1080p BDRip Dual Latino-Inglés [Subt. Esp-Ing] (Thriller. Acción. Drama)

Maestro Revolver

Administrador
Registro
9 Ago 2012
Mensajes
3.157
Reacciones (ptje)
55.034


The-Dark-Knight-1080p.jpg




FICHA_TECNICA.png


TÍTULO ORIGINAL: The Dark Knight
AÑO: 2008
DURACIÓN: 152 min.
PAÍS: USA
DIRECTOR: Christopher Nolan
GUIÓN: Christopher Nolan, David S. Goyer, Jonathan Nolan (Personajes: Bob Kane)
REPARTO: Christian Bale, Heath Ledger, Aaron Eckhart, Michael Caine, Gary Oldman, Maggie Gyllenhaal, Morgan Freeman, Eric Roberts, Cillian Murphy, Anthony Michael Hall, Michael Jai White, William Fichtner, Edison Chen, Monique Curnen, Chin Han, Nestor Carbonell, Ritchie Coster, Keith Szarabajka, Colin McFarlane, Melinda McGraw, Nathan Gamble, Michael Vieau, Tommy 'Tiny' Lister
PRODUCTORA: Coproducción USA-Reino Unido Warner Bros. Pictures / Legendary Pictures
GÉNERO: Thriller. Acción. Drama | Superhéroes. Cómic. DC Comics. Secuela. Película de culto
imdb-logo.png
http://www.imdb.com/title/tt0468569/

PREMIOS: 2008: 2 Oscar: Mejor actor secundario (Heath Ledger), montaje de sonido. 8 nominaciones
2008: Globo de Oro: Mejor actor secundario (Heath Ledger)
2008: Premios BAFTA: Mejor actor secundario (Heath Ledger). 9 nominaciones
2008: Festival de Toronto: Mejor actor secundario
2008: Premios Goya: Nominada a la mejor Película Europea
2008: Asociación de Críticos de Los Angeles: Mejor actor secundario (Ledger)




SINOPSIS.png


Batman (Christian Bale) regresa para continuar su guerra contra el crimen. Con la ayuda del teniente Jim Gordon (Gary Oldman) y del Fiscal del Distrito Harvey Dent (Aaron Eckhart), Batman se propone destruir el crimen organizado en la ciudad de Gotham. El triunvirato demuestra su eficacia, pero, de repente, aparece Joker (Heath Ledger), un nuevo criminal que desencadena el caos y tiene aterrados a los ciudadanos.




TRAILER.png






CAPTURAS.png


1.jpg


2.jpg


3.jpg


4.jpg


5.jpg


6.jpg


7.jpg


8.jpg


La pelicula NO tiene ninguna marca... solo colocamos el nombre de esta web en las capturas




DATOS_TECNICOS.png


Código:
General
Format                           : Matroska
Format version                   : Version 2
File size                        : 16.2 GiB
Duration                         : 2h 32mn
Overall bit rate                 : 15.3 Mbps
Movie name                       : www.club-hd.com
Encoded date                     : UTC 2012-11-15 00:32:58
Writing application              : mkvmerge v5.7.0 ('The Whirlwind') built on Jul  8 2012 20:08:51
Writing library                  : libebml v1.2.3 + libmatroska v1.3.0

Video
ID                               : 1
Format                           : AVC
Format/Info                      : Advanced Video Codec
Format profile                   : [email protected]
Format settings, CABAC           : Yes
Format settings, ReFrames        : 4 frames
Codec ID                         : V_MPEG4/ISO/AVC
Duration                         : 2h 32mn
Bit rate                         : 12.5 Mbps
Width                            : 1 920 pixels
Height                           : 1 080 pixels
Display aspect ratio             : 16:9
Frame rate                       : 23.976 fps
Color space                      : YUV
Chroma subsampling               : 4:2:0
Bit depth                        : 8 bits
Scan type                        : Progressive
Bits/(Pixel*Frame)               : 0.251
Stream size                      : 12.9 GiB (80%)
Title                            : www.club-hd.com
Writing library                  : x264 core 94 r1570 d9db8b3
Language                         : English
Default                          : No
Forced                           : No

Audio #1
ID                               : 2
Format                           : AC-3
Format/Info                      : Audio Coding 3
Mode extension                   : CM (complete main)
Codec ID                         : A_AC3
Duration                         : 2h 32mn
Bit rate mode                    : Constant
Bit rate                         : 640 Kbps
Channel(s)                       : 6 channels
Channel positions                : Front: L C R, Side: L R, LFE
Sampling rate                    : 48.0 KHz
Bit depth                        : 16 bits
Compression mode                 : Lossy
Delay relative to video          : 100ms
Stream size                      : 697 MiB (4%)
Title                            : www.club-hd.com  >>  Latino AC3 5.1
Language                         : Spanish
Default                          : Yes
Forced                           : No

Audio #2
ID                               : 3
Format                           : AC-3
Format/Info                      : Audio Coding 3
Mode extension                   : CM (complete main)
Codec ID                         : A_AC3
Duration                         : 2h 32mn
Bit rate mode                    : Constant
Bit rate                         : 640 Kbps
Channel(s)                       : 6 channels
Channel positions                : Front: L C R, Side: L R, LFE
Sampling rate                    : 48.0 KHz
Bit depth                        : 16 bits
Compression mode                 : Lossy
Delay relative to video          : 100ms
Stream size                      : 697 MiB (4%)
Title                            : www.club-hd.com  >>  Inglés AC3 5.1
Language                         : English
Default                          : No
Forced                           : No

Audio #3
ID                               : 4
Format                           : DTS
Format/Info                      : Digital Theater Systems
Codec ID                         : A_DTS
Duration                         : 2h 32mn
Bit rate mode                    : Constant
Bit rate                         : 1 510 Kbps
Channel(s)                       : 6 channels
Channel positions                : Front: L C R, Side: L R, LFE
Sampling rate                    : 48.0 KHz
Bit depth                        : 24 bits
Compression mode                 : Lossy
Stream size                      : 1.61 GiB (10%)
Title                            : www.club-hd.com  >>  Inglés DTS 5.1
Language                         : English
Default                          : No
Forced                           : No

Text #1
ID                               : 5
Format                           : UTF-8
Codec ID                         : S_TEXT/UTF8
Codec ID/Info                    : UTF-8 Plain Text
Language                         : Spanish
Default                          : No
Forced                           : No

Text #2
ID                               : 6
Format                           : UTF-8
Codec ID                         : S_TEXT/UTF8
Codec ID/Info                    : UTF-8 Plain Text
Language                         : English
Default                          : No
Forced                           : No

Menu
00:00:00.000                     : en:Robbery Gone Stranger [:00]
00:06:23.967                     : en:Intimidate Mode [:00]
00:10:36.261                     : en:Unknown Limits [:00]
00:13:52.582                     : en:Last Game in Town [:02]
00:17:54.198                     : en:Protector's Mantle [:00]
00:21:39.340                     : en:Kill the Batman [:00]
00:26:10.027                     : en:Hong Kong Holiday [:00]
00:29:36.274                     : en:Why So Serious? [:00]
00:31:42.484                     : en:Landing Lau [6:22]
00:37:49.058                     : en:Men of their Word [4:11]
00:43:34.070                     : en:Hero with a face [3:16]
00:46:39.547                     : en:Somebody with access [4:01]
00:48:57.768                     : en:Tonight's Entertainment [3:44]
00:53:19.446                     : en:Watch the World Burn [4:30]
00:57:15.641                     : en:Your Plan is Blackmail? [3:26]
00:59:26.354                     : en:Dishonor Guard [2:06]
01:03:59.627                     : en:No Rules [6:06]
01:08:23.558                     : en:Right Choice [5:44]
01:10:48.327                     : en:I am the Batman [3:05]
01:14:24.919                     : en:Trip to County [2:18]
01:18:05.639                     : en:Bat-pod faceoff [4:21]
01:22:22.437                     : en:We got him [3:55]
01:24:48.583                     : en:Good cop, bad cop [2:10]
01:30:48.443                     : en:Two-way Race [4:33]
01:34:04.973                     : en:Burned Down [4:23]
01:39:57.783                     : en:Harvey Two-Face [2:24]
01:42:05.494                     : en:Better class of criminal [3:27]
01:44:59.919                     : en:Watch Out [:08]
01:47:00.873                     : en:Agent of Chaos [3:40]
01:51:09.913                     : en:Hospital Room [4:16]
01:54:14.639                     : en:Too much power [2:26]
01:57:04.017                     : en:Unlucky [:49]
02:00:14.249                     : en:Ferry Scary [5:09]
02:03:37.577                     : en:Prewitt Building Seige [3:16]
02:09:07.615                     : en:Verge of Fireworks [5:52]
02:12:27.314                     : en:Battle for Gotham's Soul [2:07]
02:15:22.781                     : en:One Pointing the Gun [2:54]
02:19:58.682                     : en:Dark Knight [2:00]
02:24:26.658                     : en:End Credits [4:08]




Descarga.png




google-drive-vip.png


Tenemos TODO el material de Club-HD disponible por Mega, enlaces 100% activos y online hasta la fecha

Llévate tus cuentas Mega PRO III gratis con tu membresía VIP!
Todos los posts vivos con links de Mega.
Todo el material de Club-HD desbloqueado y sin publicidad.

Obtén más información sobre nuestras Membresías VIP




MEGA.jpg

Tenemos TODO el material de Club-HD disponible por Mega, enlaces 100% activos y online hasta la fecha

Llévate tus cuentas Mega PRO III gratis con tu membresía VIP!
Todos los posts vivos con links de Mega.
Todo el material de Club-HD desbloqueado y sin publicidad.

Obtén más información sobre nuestras Membresías VIP


UPLOADED.TO_BANNER.png

Para ver este contenido oculto, debes dar click en el botón"Like", o cualquiera de las otras reacciones:

Me Gusta Me Gusta, Me Encanta Me Encanta, Jaja Jaja, Wow Wow, Triste Triste, Molesto Molesto

OPENLOAD.png

Para ver este contenido oculto, debes dar click en el botón"Like", o cualquiera de las otras reacciones:

Me Gusta Me Gusta, Me Encanta Me Encanta, Jaja Jaja, Wow Wow, Triste Triste, Molesto Molesto
 
Última edición por un moderador:
Me pregunto que sera esto del IMAX?? Yo vengo de los Beta, vió...
 
Ya la tengo del anterior blog pero es otra calidad, descargandola de nuevo =P

Gracias!!

Saludos :D
 
QUE BUENA Onda R21 Pero espero la 720 para el ipad mejor;) pero igual Muchas Gracias!!
 
Muchas gracias. La acabo de ver en el facebook. Ya la tengo, pero veremos qué onda con esta. Pero qué buena ah, en serio. Miles de gracias!
 
Me pregunto que sera esto del IMAX?? Yo vengo de los Beta, vió...

betas y vhs max, es lo que pediamos, ahora se la pasan pidiendo 1080 3d y hasta imax sos groso revolver, sos groso,, salve al gran revolverrrrrrr:LXR::LXR::LXR::LXR::LXR:
 
Volver