• Este aviso va dirigido a todos los nuevos miembros recien llegados a Club-HD. Les recordamos que la direccion URL de este sitio web es , asi que deben acceder únicamente por esta URL. Sean todos bienvenidos al Club!

The Lost Prince (2020) 1080p WEB-DL Castellano-Francés [Subt. Esp] (Fantástico. Aventuras)

Dante Inferno

🔥Dante Inferno🔥
Miembro del Staff
Moderador
Uploader
Registrado
24 May 2016
Mensajes
604
Puntos de reacción
12,215
Puntos
93
Ubicación
Argentina
Sitio web
club-hd.com



Otro títulos: El príncipe olvidado | Le prince oublié


SINOPSIS

Los extraordinarios cuentos que cada noche cuenta un padre a su hija cobran vida en un mundo paralelo que solo les pertenece a ellos: la hija como princesa, el padre como príncipe. Así será hasta el momento en que la hija comience la escuela secundaria y llegue para ella el fin de la infancia. De la misma forma que el padre tendrá que aceptar que su hija está destinada a crecer y mudarse de casa, el príncipe tendrá que enfrentar su aventura más épica encontrando su destino en un mundo al que ya no pertenece.

MÁS INFORMACIÓN




TRAILER



CAPTURAS




MEDIAINFO

Complete name : The Lost Prince (2020) 1080p WEB-DL Castellano-Francés [Subt. Esp].mkv
Format : Matroska
Format version : Version 4
File size : 4.84 GiB
Duration : 1 h 42 min
Overall bit rate : 6 779 kb/s
Movie name : The Lost Prince (2020) 1080p WEB-DL Castellano-Francés [Subt. Esp] [www.club-hd.com]
Encoded date : UTC 2020-07-31 12:01:36
Writing application : mkvmerge v27.0.0 ('Metropolis') 64-bit
Writing library : libebml v1.3.6 + libmatroska v1.4.9

Video
ID : 1
Format : AVC
Format/Info : Advanced Video Codec
Format profile : High@L4.1
Format settings : CABAC / 5 Ref Frames
Format settings, CABAC : Yes
Format settings, Reference frames : 5 frames
Codec ID : V_MPEG4/ISO/AVC
Duration : 1 h 42 min
Bit rate : 5 689 kb/s
Width : 1 920 pixels
Height : 804 pixels
Display aspect ratio : 2.40:1
Frame rate mode : Constant
Frame rate : 23.976 (24000/1001) FPS
Color space : YUV
Chroma subsampling : 4:2:0
Bit depth : 8 bits
Scan type : Progressive
Bits/(Pixel*Frame) : 0.154
Stream size : 4.07 GiB (84%)
Title : The Lost Prince (2020) 1080p WEB-DL Castellano-Francés [Subt. Esp]
Writing library : x264 core 152 r2851 ba24899
Language : French
Default : Yes
Forced : No

Audio #1
ID : 2
Format : AC-3
Format/Info : Audio Coding 3
Commercial name : Dolby Digital
Codec ID : A_AC3
Duration : 1 h 42 min
Bit rate mode : Constant
Bit rate : 640 kb/s
Channel(s) : 6 channels
Channel layout : L R C LFE Ls Rs
Sampling rate : 48.0 kHz
Frame rate : 31.250 FPS (1536 SPF)
Compression mode : Lossy
Stream size : 468 MiB (9%)
Title : Castellano
Language : Spanish
Service kind : Complete Main
Default : Yes
Forced : No

Audio #2
ID : 3
Format : AC-3
Format/Info : Audio Coding 3
Commercial name : Dolby Digital
Codec ID : A_AC3
Duration : 1 h 42 min
Bit rate mode : Constant
Bit rate : 448 kb/s
Channel(s) : 6 channels
Channel layout : L R C LFE Ls Rs
Sampling rate : 48.0 kHz
Frame rate : 31.250 FPS (1536 SPF)
Compression mode : Lossy
Stream size : 328 MiB (7%)
Title : Francés
Language : French
Service kind : Complete Main
Default : No
Forced : No

Text
ID : 4
Format : UTF-8
Codec ID : S_TEXT/UTF8
Codec ID/Info : UTF-8 Plain Text
Duration : 1 h 40 min
Bit rate : 54 b/s
Count of elements : 1398
Stream size : 40.0 KiB (0%)
Title : Subtítulos Español
Language : Spanish
Default : No
Forced : No

Menu
00:00:00.000 : en:Chapter 01
00:05:49.140 : en:Chapter 02
00:13:37.400 : en:Chapter 03
00:21:39.340 : en:Chapter 04
00:31:02.402 : en:Chapter 05
00:41:53.803 : en:Chapter 06
00:51:56.530 : en:Chapter 07
01:01:51.333 : en:Chapter 08
01:10:53.207 : en:Chapter 09
01:19:19.338 : en:Chapter 10
01:29:31.074 : en:Chapter 11
01:36:35.665 : en:Chapter 12


CONTRASEÑA





Disponible
⭐¡VER ONLINE y DESCARGAR 1 LINK!⭐


Enlaces de Mega y Google Drive solo disponibles para Miembros VIP

Compra tu Membresía VIP y apoya a Club-HD!

ATENCIÓN! Tenemos TODO el material de Club-HD disponible por Mega y Google Drive, enlaces 100% activos y online hasta la fecha

Llévate tus cuentas Mega PRO II gratis con tu membresía VIP!
Todos los posts vivos con links de Mega y Google Drive.
Todo el material de Club-HD desbloqueado y sin publicidad.

Click Aquí para más información.

DESCARGAR



Enlaces de Mega y Google Drive solo disponibles para Miembros VIP

Compra tu Membresía VIP y apoya a Club-HD!

ATENCIÓN! Tenemos TODO el material de Club-HD disponible por Mega y Google Drive, enlaces 100% activos y online hasta la fecha

Llévate tus cuentas Mega PRO II gratis con tu membresía VIP!
Todos los posts vivos con links de Mega y Google Drive.
Todo el material de Club-HD desbloqueado y sin publicidad.

Click Aquí para más información.



Para ver este contenido oculto, debes dar click en una de las siguientes reacciones: Like Like, Love Love, Haha Haha, Wow Wow, Sad Sad, Angry Angry



Para ver este contenido oculto, debes dar click en una de las siguientes reacciones: Like Like, Love Love, Haha Haha, Wow Wow, Sad Sad, Angry Angry



Para ver este contenido oculto, debes dar click en una de las siguientes reacciones: Like Like, Love Love, Haha Haha, Wow Wow, Sad Sad, Angry Angry



Para ver este contenido oculto, debes dar click en una de las siguientes reacciones: Like Like, Love Love, Haha Haha, Wow Wow, Sad Sad, Angry Angry
 
Última edición:

rpradoz

Member
Registrado
26 Mar 2016
Mensajes
93
Puntos de reacción
2
Puntos
6
Edad
49



Otro títulos: El príncipe olvidado | Le prince oublié


SINOPSIS

Los extraordinarios cuentos que cada noche cuenta un padre a su hija cobran vida en un mundo paralelo que solo les pertenece a ellos: la hija como princesa, el padre como príncipe. Así será hasta el momento en que la hija comience la escuela secundaria y llegue para ella el fin de la infancia. De la misma forma que el padre tendrá que aceptar que su hija está destinada a crecer y mudarse de casa, el príncipe tendrá que enfrentar su aventura más épica encontrando su destino en un mundo al que ya no pertenece.

MÁS INFORMACIÓN




TRAILER



CAPTURAS




MEDIAINFO

Complete name : The Lost Prince (2020) 1080p WEB-DL Castellano-Francés [Subt. Esp].mkv
Format : Matroska
Format version : Version 4
File size : 4.84 GiB
Duration : 1 h 42 min
Overall bit rate : 6 779 kb/s
Movie name : The Lost Prince (2020) 1080p WEB-DL Castellano-Francés [Subt. Esp] [www.club-hd.com]
Encoded date : UTC 2020-07-31 12:01:36
Writing application : mkvmerge v27.0.0 ('Metropolis') 64-bit
Writing library : libebml v1.3.6 + libmatroska v1.4.9

Video
ID : 1
Format : AVC
Format/Info : Advanced Video Codec
Format profile : High@L4.1
Format settings : CABAC / 5 Ref Frames
Format settings, CABAC : Yes
Format settings, Reference frames : 5 frames
Codec ID : V_MPEG4/ISO/AVC
Duration : 1 h 42 min
Bit rate : 5 689 kb/s
Width : 1 920 pixels
Height : 804 pixels
Display aspect ratio : 2.40:1
Frame rate mode : Constant
Frame rate : 23.976 (24000/1001) FPS
Color space : YUV
Chroma subsampling : 4:2:0
Bit depth : 8 bits
Scan type : Progressive
Bits/(Pixel*Frame) : 0.154
Stream size : 4.07 GiB (84%)
Title : The Lost Prince (2020) 1080p WEB-DL Castellano-Francés [Subt. Esp]
Writing library : x264 core 152 r2851 ba24899
Language : French
Default : Yes
Forced : No

Audio #1
ID : 2
Format : AC-3
Format/Info : Audio Coding 3
Commercial name : Dolby Digital
Codec ID : A_AC3
Duration : 1 h 42 min
Bit rate mode : Constant
Bit rate : 640 kb/s
Channel(s) : 6 channels
Channel layout : L R C LFE Ls Rs
Sampling rate : 48.0 kHz
Frame rate : 31.250 FPS (1536 SPF)
Compression mode : Lossy
Stream size : 468 MiB (9%)
Title : Castellano
Language : Spanish
Service kind : Complete Main
Default : Yes
Forced : No

Audio #2
ID : 3
Format : AC-3
Format/Info : Audio Coding 3
Commercial name : Dolby Digital
Codec ID : A_AC3
Duration : 1 h 42 min
Bit rate mode : Constant
Bit rate : 448 kb/s
Channel(s) : 6 channels
Channel layout : L R C LFE Ls Rs
Sampling rate : 48.0 kHz
Frame rate : 31.250 FPS (1536 SPF)
Compression mode : Lossy
Stream size : 328 MiB (7%)
Title : Francés
Language : French
Service kind : Complete Main
Default : No
Forced : No

Text
ID : 4
Format : UTF-8
Codec ID : S_TEXT/UTF8
Codec ID/Info : UTF-8 Plain Text
Duration : 1 h 40 min
Bit rate : 54 b/s
Count of elements : 1398
Stream size : 40.0 KiB (0%)
Title : Subtítulos Español
Language : Spanish
Default : No
Forced : No

Menu
00:00:00.000 : en:Chapter 01
00:05:49.140 : en:Chapter 02
00:13:37.400 : en:Chapter 03
00:21:39.340 : en:Chapter 04
00:31:02.402 : en:Chapter 05
00:41:53.803 : en:Chapter 06
00:51:56.530 : en:Chapter 07
01:01:51.333 : en:Chapter 08
01:10:53.207 : en:Chapter 09
01:19:19.338 : en:Chapter 10
01:29:31.074 : en:Chapter 11
01:36:35.665 : en:Chapter 12



CONTRASEÑA






Disponible
⭐¡VER ONLINE y DESCARGAR 1 LINK!⭐


[Hidden content]


DESCARGAR



[Hidden content]




[Hidden content]




[Hidden content]




[Hidden content]




[Hidden content]
muchas gracias
 

rpradoz

Member
Registrado
26 Mar 2016
Mensajes
93
Puntos de reacción
2
Puntos
6
Edad
49



Otro títulos: El príncipe olvidado | Le prince oublié


SINOPSIS

Los extraordinarios cuentos que cada noche cuenta un padre a su hija cobran vida en un mundo paralelo que solo les pertenece a ellos: la hija como princesa, el padre como príncipe. Así será hasta el momento en que la hija comience la escuela secundaria y llegue para ella el fin de la infancia. De la misma forma que el padre tendrá que aceptar que su hija está destinada a crecer y mudarse de casa, el príncipe tendrá que enfrentar su aventura más épica encontrando su destino en un mundo al que ya no pertenece.

MÁS INFORMACIÓN




TRAILER



CAPTURAS




MEDIAINFO

Complete name : The Lost Prince (2020) 1080p WEB-DL Castellano-Francés [Subt. Esp].mkv
Format : Matroska
Format version : Version 4
File size : 4.84 GiB
Duration : 1 h 42 min
Overall bit rate : 6 779 kb/s
Movie name : The Lost Prince (2020) 1080p WEB-DL Castellano-Francés [Subt. Esp] [www.club-hd.com]
Encoded date : UTC 2020-07-31 12:01:36
Writing application : mkvmerge v27.0.0 ('Metropolis') 64-bit
Writing library : libebml v1.3.6 + libmatroska v1.4.9

Video
ID : 1
Format : AVC
Format/Info : Advanced Video Codec
Format profile : High@L4.1
Format settings : CABAC / 5 Ref Frames
Format settings, CABAC : Yes
Format settings, Reference frames : 5 frames
Codec ID : V_MPEG4/ISO/AVC
Duration : 1 h 42 min
Bit rate : 5 689 kb/s
Width : 1 920 pixels
Height : 804 pixels
Display aspect ratio : 2.40:1
Frame rate mode : Constant
Frame rate : 23.976 (24000/1001) FPS
Color space : YUV
Chroma subsampling : 4:2:0
Bit depth : 8 bits
Scan type : Progressive
Bits/(Pixel*Frame) : 0.154
Stream size : 4.07 GiB (84%)
Title : The Lost Prince (2020) 1080p WEB-DL Castellano-Francés [Subt. Esp]
Writing library : x264 core 152 r2851 ba24899
Language : French
Default : Yes
Forced : No

Audio #1
ID : 2
Format : AC-3
Format/Info : Audio Coding 3
Commercial name : Dolby Digital
Codec ID : A_AC3
Duration : 1 h 42 min
Bit rate mode : Constant
Bit rate : 640 kb/s
Channel(s) : 6 channels
Channel layout : L R C LFE Ls Rs
Sampling rate : 48.0 kHz
Frame rate : 31.250 FPS (1536 SPF)
Compression mode : Lossy
Stream size : 468 MiB (9%)
Title : Castellano
Language : Spanish
Service kind : Complete Main
Default : Yes
Forced : No

Audio #2
ID : 3
Format : AC-3
Format/Info : Audio Coding 3
Commercial name : Dolby Digital
Codec ID : A_AC3
Duration : 1 h 42 min
Bit rate mode : Constant
Bit rate : 448 kb/s
Channel(s) : 6 channels
Channel layout : L R C LFE Ls Rs
Sampling rate : 48.0 kHz
Frame rate : 31.250 FPS (1536 SPF)
Compression mode : Lossy
Stream size : 328 MiB (7%)
Title : Francés
Language : French
Service kind : Complete Main
Default : No
Forced : No

Text
ID : 4
Format : UTF-8
Codec ID : S_TEXT/UTF8
Codec ID/Info : UTF-8 Plain Text
Duration : 1 h 40 min
Bit rate : 54 b/s
Count of elements : 1398
Stream size : 40.0 KiB (0%)
Title : Subtítulos Español
Language : Spanish
Default : No
Forced : No

Menu
00:00:00.000 : en:Chapter 01
00:05:49.140 : en:Chapter 02
00:13:37.400 : en:Chapter 03
00:21:39.340 : en:Chapter 04
00:31:02.402 : en:Chapter 05
00:41:53.803 : en:Chapter 06
00:51:56.530 : en:Chapter 07
01:01:51.333 : en:Chapter 08
01:10:53.207 : en:Chapter 09
01:19:19.338 : en:Chapter 10
01:29:31.074 : en:Chapter 11
01:36:35.665 : en:Chapter 12



CONTRASEÑA






Disponible
⭐¡VER ONLINE y DESCARGAR 1 LINK!⭐


[Hidden content]


DESCARGAR



[Hidden content]




[Hidden content]




[Hidden content]




[Hidden content]




[Hidden content]
 

chavy_x12

Member
Registrado
28 Ago 2012
Mensajes
988
Puntos de reacción
24
Puntos
18
Edad
35
Muchas gracias por el aporte (y)
 

Usuarios Que Están Viendo Este Tema (Total: 1, Miembros: 0, Invitados: 1)

Arriba