The Wheel of Time: S01 E01-E05* (2021) AMZN WEB-DL 1080p Latino-Inglés [Sub.Esp] (Serie de TV. Aventuras)

LuchoO

責任者
Miembro del Staff
Moderador
Uploader
Registro
15 Ago 2015
Mensajes
753
Reacciones
11.150
Puntos
93

Reputation:











Serie basada en la popular serie literaria de fantasía de Robert Jordan, "La rueda del tiempo2 (The Wheel of Time), con más de 90 millones de libros vendidos. Ambientada en un extenso y épico mundo en el que existe la magia y únicamente algunas mujeres pueden acceder a ella, la historia sigue a Moiraine, miembro de una organización femenina increíblemente poderosa llamada 'Aes Sedai', cuando llega a la pequeña ciudad de Two Rivers. Allí se embarca en un peligroso viaje por todo el mundo con cinco jóvenes, uno de los cuales ha sido profetizado como "el dragón renacido", que salvará o destruirá a la humanidad.





















General
Complete name : The.Wheel.of.Time.S01E01.AMZN.WEB-DL.1080p.DDP5.1.x264.Lat.Ing.mkv
Format : Matroska
Format version : Version 4
File size : 3.76 GiB
Duration : 54 min 4 s
Overall bit rate : 9 965 kb/s
Encoded date : UTC 2021-11-19 03:36:46
Writing application : mkvmerge v61.0.0 ('So') 64-bit
Writing library : libebml v1.4.2 + libmatroska v1.6.4

Video
ID : 1
Format : AVC
Format/Info : Advanced Video Codec
Format profile : High@L4
Format settings : CABAC / 4 Ref Frames
Format settings, CABAC : Yes
Format settings, RefFrames : 4 frames
Codec ID : V_MPEG4/ISO/AVC
Duration : 54 min 4 s
Bit rate mode : Constant
Bit rate : 8 682 kb/s
Nominal bit rate : 10 000 kb/s
Width : 1 920 pixels
Height : 1 080 pixels
Display aspect ratio : 16:9
Frame rate mode : Constant
Frame rate : 23.976 (24000/1001) FPS
Color space : YUV
Chroma subsampling : 4:2:0
Bit depth : 8 bits
Scan type : Progressive
Bits/(Pixel*Frame) : 0.175
Stream size : 3.28 GiB (87%)
Default : Yes
Forced : No
Color range : Limited
Color primaries : BT.709
Transfer characteristics : BT.709
Matrix coefficients : BT.709

Audio #1
ID : 2
Format : E-AC-3
Format/Info : Enhanced AC-3
Commercial name : Dolby Digital Plus
Codec ID : A_EAC3
Duration : 54 min 4 s
Bit rate mode : Constant
Bit rate : 640 kb/s
Channel(s) : 6 channels
Channel layout : L R C LFE Ls Rs
Sampling rate : 48.0 kHz
Frame rate : 31.250 FPS (1536 SPF)
Compression mode : Lossy
Stream size : 248 MiB (6%)
Language : Spanish
Service kind : Complete Main
Default : Yes
Forced : No

Audio #2
ID : 3
Format : E-AC-3
Format/Info : Enhanced AC-3
Commercial name : Dolby Digital Plus
Codec ID : A_EAC3
Duration : 54 min 4 s
Bit rate mode : Constant
Bit rate : 640 kb/s
Channel(s) : 6 channels
Channel layout : L R C LFE Ls Rs
Sampling rate : 48.0 kHz
Frame rate : 31.250 FPS (1536 SPF)
Compression mode : Lossy
Stream size : 248 MiB (6%)
Language : English
Service kind : Complete Main
Default : Yes
Forced : No

Text #1
ID : 4
Format : UTF-8
Codec ID : S_TEXT/UTF8
Codec ID/Info : UTF-8 Plain Text
Duration : 5 s 964 ms
Bit rate : 26 b/s
Count of elements : 1
Stream size : 20.0 Bytes (0%)
Language : Spanish
Default : Yes
Forced : Yes

Text #2
ID : 5
Format : UTF-8
Codec ID : S_TEXT/UTF8
Codec ID/Info : UTF-8 Plain Text
Duration : 51 min 12 s
Bit rate : 33 b/s
Count of elements : 482
Stream size : 12.7 KiB (0%)
Language : English
Default : No
Forced : No

Text #3
ID : 6
Format : UTF-8
Codec ID : S_TEXT/UTF8
Codec ID/Info : UTF-8 Plain Text
Duration : 53 min 38 s
Bit rate : 30 b/s
Count of elements : 390
Stream size : 12.2 KiB (0%)
Language : Spanish
Default : No
Forced : No

"Serie de 09 Capítulos que se actualizarán semanalmente" ADD E05



★Todos los links son Intercambiables★



Enlaces de Mega y Fireload solo disponibles para Miembros VIP

Compra tu Membresía VIP y apoya a Club-HD!

ATENCIÓN! Tenemos TODO el material de Club-HD disponible por Mega y Fireload, enlaces 100% activos y online hasta la fecha

Llévate tus cuentas Mega PRO II gratis con tu membresía VIP!
Todos los posts vivos con links de Mega y Fireload.
Todo el material de Club-HD desbloqueado y sin publicidad.

Click Aquí para más información.


Enlaces de Mega y Fireload solo disponibles para Miembros VIP

Compra tu Membresía VIP y apoya a Club-HD!

ATENCIÓN! Tenemos TODO el material de Club-HD disponible por Mega y Fireload, enlaces 100% activos y online hasta la fecha

Llévate tus cuentas Mega PRO II gratis con tu membresía VIP!
Todos los posts vivos con links de Mega y Fireload.
Todo el material de Club-HD desbloqueado y sin publicidad.

Click Aquí para más información.


Para ver este contenido oculto, debes dar click en una de las siguientes reacciones : Like Like, Love Love, Haha Haha, Wow Wow, Sad Sad, Angry Angry


Para ver este contenido oculto, debes dar click en una de las siguientes reacciones : Like Like, Love Love, Haha Haha, Wow Wow, Sad Sad, Angry Angry
★ CONTRASEÑA ★
www.club-hd.com
 

u026357

New member
Registro
12 Ene 2016
Mensajes
24
Reacciones
0
Puntos
1

Reputation:











Serie basada en la popular serie literaria de fantasía de Robert Jordan, "La rueda del tiempo2 (The Wheel of Time), con más de 90 millones de libros vendidos. Ambientada en un extenso y épico mundo en el que existe la magia y únicamente algunas mujeres pueden acceder a ella, la historia sigue a Moiraine, miembro de una organización femenina increíblemente poderosa llamada 'Aes Sedai', cuando llega a la pequeña ciudad de Two Rivers. Allí se embarca en un peligroso viaje por todo el mundo con cinco jóvenes, uno de los cuales ha sido profetizado como "el dragón renacido", que salvará o destruirá a la humanidad.





















General
Complete name : The.Wheel.of.Time.S01E01.AMZN.WEB-DL.1080p.DDP5.1.x264.Lat.Ing.mkv
Format : Matroska
Format version : Version 4
File size : 3.76 GiB
Duration : 54 min 4 s
Overall bit rate : 9 965 kb/s
Encoded date : UTC 2021-11-19 03:36:46
Writing application : mkvmerge v61.0.0 ('So') 64-bit
Writing library : libebml v1.4.2 + libmatroska v1.6.4

Video
ID : 1
Format : AVC
Format/Info : Advanced Video Codec
Format profile : High@L4
Format settings : CABAC / 4 Ref Frames
Format settings, CABAC : Yes
Format settings, RefFrames : 4 frames
Codec ID : V_MPEG4/ISO/AVC
Duration : 54 min 4 s
Bit rate mode : Constant
Bit rate : 8 682 kb/s
Nominal bit rate : 10 000 kb/s
Width : 1 920 pixels
Height : 1 080 pixels
Display aspect ratio : 16:9
Frame rate mode : Constant
Frame rate : 23.976 (24000/1001) FPS
Color space : YUV
Chroma subsampling : 4:2:0
Bit depth : 8 bits
Scan type : Progressive
Bits/(Pixel*Frame) : 0.175
Stream size : 3.28 GiB (87%)
Default : Yes
Forced : No
Color range : Limited
Color primaries : BT.709
Transfer characteristics : BT.709
Matrix coefficients : BT.709

Audio #1
ID : 2
Format : E-AC-3
Format/Info : Enhanced AC-3
Commercial name : Dolby Digital Plus
Codec ID : A_EAC3
Duration : 54 min 4 s
Bit rate mode : Constant
Bit rate : 640 kb/s
Channel(s) : 6 channels
Channel layout : L R C LFE Ls Rs
Sampling rate : 48.0 kHz
Frame rate : 31.250 FPS (1536 SPF)
Compression mode : Lossy
Stream size : 248 MiB (6%)
Language : Spanish
Service kind : Complete Main
Default : Yes
Forced : No

Audio #2
ID : 3
Format : E-AC-3
Format/Info : Enhanced AC-3
Commercial name : Dolby Digital Plus
Codec ID : A_EAC3
Duration : 54 min 4 s
Bit rate mode : Constant
Bit rate : 640 kb/s
Channel(s) : 6 channels
Channel layout : L R C LFE Ls Rs
Sampling rate : 48.0 kHz
Frame rate : 31.250 FPS (1536 SPF)
Compression mode : Lossy
Stream size : 248 MiB (6%)
Language : English
Service kind : Complete Main
Default : Yes
Forced : No

Text #1
ID : 4
Format : UTF-8
Codec ID : S_TEXT/UTF8
Codec ID/Info : UTF-8 Plain Text
Duration : 5 s 964 ms
Bit rate : 26 b/s
Count of elements : 1
Stream size : 20.0 Bytes (0%)
Language : Spanish
Default : Yes
Forced : Yes

Text #2
ID : 5
Format : UTF-8
Codec ID : S_TEXT/UTF8
Codec ID/Info : UTF-8 Plain Text
Duration : 51 min 12 s
Bit rate : 33 b/s
Count of elements : 482
Stream size : 12.7 KiB (0%)
Language : English
Default : No
Forced : No

Text #3
ID : 6
Format : UTF-8
Codec ID : S_TEXT/UTF8
Codec ID/Info : UTF-8 Plain Text
Duration : 53 min 38 s
Bit rate : 30 b/s
Count of elements : 390
Stream size : 12.2 KiB (0%)
Language : Spanish
Default : No
Forced : No

"Serie de 09 Capítulos que se actualizarán semanalmente"



★Todos los links son Intercambiables★



[Hidden content]



[Hidden content]



[Hidden content]



[Hidden content]

★ CONTRASEÑA ★

www.club-hd.com
 

phillip64

Active member
Registro
29 Ago 2012
Mensajes
847
Reacciones
213
Puntos
43

Reputation:

Que serie tan fascinante y con un elenco de superlujo....gracias por compartirla amigos! ;)
 

u026357

New member
Registro
12 Ene 2016
Mensajes
24
Reacciones
0
Puntos
1

Reputation:











Serie basada en la popular serie literaria de fantasía de Robert Jordan, "La rueda del tiempo2 (The Wheel of Time), con más de 90 millones de libros vendidos. Ambientada en un extenso y épico mundo en el que existe la magia y únicamente algunas mujeres pueden acceder a ella, la historia sigue a Moiraine, miembro de una organización femenina increíblemente poderosa llamada 'Aes Sedai', cuando llega a la pequeña ciudad de Two Rivers. Allí se embarca en un peligroso viaje por todo el mundo con cinco jóvenes, uno de los cuales ha sido profetizado como "el dragón renacido", que salvará o destruirá a la humanidad.





















General
Complete name : The.Wheel.of.Time.S01E01.AMZN.WEB-DL.1080p.DDP5.1.x264.Lat.Ing.mkv
Format : Matroska
Format version : Version 4
File size : 3.76 GiB
Duration : 54 min 4 s
Overall bit rate : 9 965 kb/s
Encoded date : UTC 2021-11-19 03:36:46
Writing application : mkvmerge v61.0.0 ('So') 64-bit
Writing library : libebml v1.4.2 + libmatroska v1.6.4

Video
ID : 1
Format : AVC
Format/Info : Advanced Video Codec
Format profile : High@L4
Format settings : CABAC / 4 Ref Frames
Format settings, CABAC : Yes
Format settings, RefFrames : 4 frames
Codec ID : V_MPEG4/ISO/AVC
Duration : 54 min 4 s
Bit rate mode : Constant
Bit rate : 8 682 kb/s
Nominal bit rate : 10 000 kb/s
Width : 1 920 pixels
Height : 1 080 pixels
Display aspect ratio : 16:9
Frame rate mode : Constant
Frame rate : 23.976 (24000/1001) FPS
Color space : YUV
Chroma subsampling : 4:2:0
Bit depth : 8 bits
Scan type : Progressive
Bits/(Pixel*Frame) : 0.175
Stream size : 3.28 GiB (87%)
Default : Yes
Forced : No
Color range : Limited
Color primaries : BT.709
Transfer characteristics : BT.709
Matrix coefficients : BT.709

Audio #1
ID : 2
Format : E-AC-3
Format/Info : Enhanced AC-3
Commercial name : Dolby Digital Plus
Codec ID : A_EAC3
Duration : 54 min 4 s
Bit rate mode : Constant
Bit rate : 640 kb/s
Channel(s) : 6 channels
Channel layout : L R C LFE Ls Rs
Sampling rate : 48.0 kHz
Frame rate : 31.250 FPS (1536 SPF)
Compression mode : Lossy
Stream size : 248 MiB (6%)
Language : Spanish
Service kind : Complete Main
Default : Yes
Forced : No

Audio #2
ID : 3
Format : E-AC-3
Format/Info : Enhanced AC-3
Commercial name : Dolby Digital Plus
Codec ID : A_EAC3
Duration : 54 min 4 s
Bit rate mode : Constant
Bit rate : 640 kb/s
Channel(s) : 6 channels
Channel layout : L R C LFE Ls Rs
Sampling rate : 48.0 kHz
Frame rate : 31.250 FPS (1536 SPF)
Compression mode : Lossy
Stream size : 248 MiB (6%)
Language : English
Service kind : Complete Main
Default : Yes
Forced : No

Text #1
ID : 4
Format : UTF-8
Codec ID : S_TEXT/UTF8
Codec ID/Info : UTF-8 Plain Text
Duration : 5 s 964 ms
Bit rate : 26 b/s
Count of elements : 1
Stream size : 20.0 Bytes (0%)
Language : Spanish
Default : Yes
Forced : Yes

Text #2
ID : 5
Format : UTF-8
Codec ID : S_TEXT/UTF8
Codec ID/Info : UTF-8 Plain Text
Duration : 51 min 12 s
Bit rate : 33 b/s
Count of elements : 482
Stream size : 12.7 KiB (0%)
Language : English
Default : No
Forced : No

Text #3
ID : 6
Format : UTF-8
Codec ID : S_TEXT/UTF8
Codec ID/Info : UTF-8 Plain Text
Duration : 53 min 38 s
Bit rate : 30 b/s
Count of elements : 390
Stream size : 12.2 KiB (0%)
Language : Spanish
Default : No
Forced : No

"Serie de 09 Capítulos que se actualizarán semanalmente"



★Todos los links son Intercambiables★



[Hidden content]



[Hidden content]



[Hidden content]



[Hidden content]

★ CONTRASEÑA ★

www.club-hd.com
 

Usuarios Que Están Viendo Este Tema (Total: 1, Miembros: 0, Invitados: 1)

Arriba