True Justice S02 (2012) 1080p AMZN WEB-DL Latino (Acción)

Trevor

Well-known member
Miembro del Staff
Uploader
Registro
17 May 2018
Mensajes
1.612
Edad
33





Elijah Kane (Steven Seagal) es un policía de Seattle que actúa como agente encubierto para buscar y perseguir a los delincuentes más peligrosos. Elijah Kane cuenta con el apoyo de su equipo, una élite de agentes, reclutados por él, que se encargarán de la lucha contra la delincuencia empleando todos los medios a su alcance.



Código:
Format                      : Matroska
Format version              : Version 4
File size                   : 2.67 GiB
Duration                    : 44 min 9 s
Overall bit rate mode       : Constant
Overall bit rate            : 8 652 kb/s
Encoded date                : UTC 2022-07-25 11:32:56
Writing application         : mkvmerge v58.0.0 ('Supper's Ready') 32-bit
Writing library             : libebml v1.4.2 + libmatroska v1.6.4

Video
ID                          : 1
Format                      : AVC
Format/Info                 : Advanced Video Codec
Format profile              : High@L4
Format settings             : CABAC / 4 Ref Frames
Format settings, CABAC      : Yes
Format settings, Reference  : 4 frames
Codec ID                    : V_MPEG4/ISO/AVC
Duration                    : 44 min 9 s
Bit rate mode               : Constant
Bit rate                    : 8 010 kb/s
Nominal bit rate            : 10 000 kb/s
Width                       : 1 920 pixels
Height                      : 1 080 pixels
Display aspect ratio        : 16:9
Frame rate mode             : Constant
Frame rate                  : 29.970 (30000/1001) FPS
Color space                 : YUV
Chroma subsampling          : 4:2:0
Bit depth                   : 8 bits
Scan type                   : Progressive
Bits/(Pixel*Frame)          : 0.129
Stream size                 : 2.47 GiB (93%)
Default                     : Yes
Forced                      : No
Color range                 : Limited
Color primaries             : BT.709
Transfer characteristics    : BT.709
Matrix coefficients         : BT.709

Audio
ID                          : 2
Format                      : E-AC-3
Format/Info                 : Enhanced AC-3
Commercial name             : Dolby Digital Plus
Codec ID                    : A_EAC3
Duration                    : 44 min 9 s
Bit rate mode               : Constant
Bit rate                    : 640 kb/s
Channel(s)                  : 6 channels
Channel layout              : L R C LFE Ls Rs
Sampling rate               : 48.0 kHz
Frame rate                  : 31.250 FPS (1536 SPF)
Compression mode            : Lossy
Stream size                 : 202 MiB (7%)
Title                       : Spanish
Language                    : Spanish
Service kind                : Complete Main
Default                     : Yes
Forced                      : No










Fuente video: WEB-DL H264 1080p (High@L4,AVC)
Fuente audios: WEB-DL EAC3 5.1 a 640 kb/s
Idiomas audios: Español (Latinoamérica)
Formato de subtítulos: No
Idiomas subtitulos: No
Fuente: AMAZON






Enlaces de Mega y Google Drive solo disponibles para Miembros VIP

Compra tu Membresía VIP y apoya a Club-HD!

ATENCIÓN! Tenemos TODO el material de Club-HD disponible por Mega y Google Drive, enlaces 100% activos y online hasta la fecha

Llévate tus cuentas Mega PRO III gratis con tu membresía VIP!
Todos los posts vivos con links de Mega y Google Drive.
Todo el material de Club-HD desbloqueado y sin publicidad.

Click Aquí para más información.


Para ver este contenido oculto, debes dar click en una de las siguientes reacciones : Like Like, Love Love, Haha Haha, Wow Wow, Sad Sad, Angry Angry
Opción 2



Para ver este contenido oculto, debes dar click en una de las siguientes reacciones : Like Like, Love Love, Haha Haha, Wow Wow, Sad Sad, Angry Angry
 
Última edición por un moderador:

Usuarios Que Están Viendo Este Tema (Total: 1, Miembros: 0, Invitados: 1)

Quién Leyó Este Tema (Total Miembros: 13)

Arriba