• Buenos dias amigos del club. Les queremos avisar que ya recuperamos el acceso a las webs de las Membresías VIP y del Paste. Asi que ya pueden comprar sus membresías y descargar todos los estrenos nuevamente.

World War Z (2013) 3D H-SBS 1080p BDRip Dual Latino-Inglés [Subt. Esp] (Acción. Ciencia ficción)

Maestro Revolver

Administrador
Registro
9 Ago 2012
Mensajes
3.157
Reacciones (ptje)
55.322


wwz3d.jpg




FichaTecnica.jpg


TÍTULO ORIGINAL: World War Z
AÑO: 2013
DURACIÓN: 116 min.
PAÍS: USA
DIRECTOR: Marc Forster
GUIÓN: J. Michael Straczynski, Matthew Michael Carnahan (Novela: Max Brooks)
REPARTO: Brad Pitt, Mireille Enos, Daniella Kertesz, David Morse, Matthew Fox, Eric West, James Badge Dale, David Andrews, Peter Capaldi, Ludi Boeken, Fana Mokoena, Abigail Hargrove, Elyes Gabel, Pierfrancesco Favino, Moritz Bleibtreu, Ruth Negga
PRODUCTORA: Paramount Pictures / Skydance Productions / GK Films / Plan B Entertainment / Apparatus Productions / Hemisphere Media Capital / Latina Pictures
GÉNERO: Acción. Thriller. Terror. Ciencia ficción | Zombis. 3-D. Pandemias
imdb-logo.png
: http://www.imdb.com/title/tt0816711/




Sinopsis.jpg


Cuando el mundo comienza a ser invadido por una pandemia de muertos vivientes, el experto investigador de las Naciones Unidas Gerry Lane (Brad Pitt) intentará evitar lo que podría ser el fin de la civilización en una carrera contra el tiempo y el destino. La destrucción a la que se ve sometida la raza humana le hace recorrer el mundo entero buscando respuestas sobre cómo parar la horrible epidemia que amenaza a toda la humanidad, intentando salvar las vidas de millones de desconocidos así como la de su propia familia.




Trailer.jpg






Capturas.jpg


1.jpg


2.jpg


3.jpg


4.jpg


5.jpg


6.jpg


7.jpg


8.jpg


La pelicula NO tiene ninguna marca... solo colocamos el nombre de esta web en las capturas




MediaInfo.jpg


Código:
General
Format                                   : Matroska
Format version                           : Version 3 / Version 2
File size                                : 12.9 GiB
Duration                                 : 1h 56mn
Overall bit rate                         : 15.9 Mbps
Movie name                               : www.club-hd.com
Encoded date                             : UTC 2013-09-09 22:25:19
Writing application                      : mkvmerge v5.7.0 ('The Whirlwind') built on Jul  8 2012 20:08:51
Writing library                          : libebml v1.2.3 + libmatroska v1.3.0

Video
ID                                       : 1
Format                                   : AVC
Format/Info                              : Advanced Video Codec
Format profile                           : [email protected]
MultiView_Count                          : 2
MultiView_Layout                         : Side by Side (left eye first)
Format settings, CABAC                   : Yes
Format settings, ReFrames                : 4 frames
Codec ID                                 : V_MPEG4/ISO/AVC
Duration                                 : 1h 56mn
Bit rate                                 : 13.4 Mbps
Width                                    : 1 920 pixels
Height                                   : 1 080 pixels
Display aspect ratio                     : 16:9
Frame rate mode                          : Constant
Frame rate                               : 23.976 fps
Color space                              : YUV
Chroma subsampling                       : 4:2:0
Bit depth                                : 8 bits
Scan type                                : Progressive
Bits/(Pixel*Frame)                       : 0.270
Stream size                              : 10.4 GiB (80%)
Title                                    : www.club-hd.com
Writing library                          : x264 core 130 r2273 b3065e6
Language                                 : English
Default                                  : Yes
Forced                                   : No

Audio #1
ID                                       : 2
Format                                   : AC-3
Format/Info                              : Audio Coding 3
Mode extension                           : CM (complete main)
Format settings, Endianness              : Big
Codec ID                                 : A_AC3
Duration                                 : 1h 56mn
Bit rate mode                            : Constant
Bit rate                                 : 640 Kbps
Channel(s)                               : 6 channels
Channel positions                        : Front: L C R, Side: L R, LFE
Sampling rate                            : 48.0 KHz
Bit depth                                : 16 bits
Compression mode                         : Lossy
Stream size                              : 531 MiB (4%)
Title                                    : www.club-hd.com > Latino AC3 5.1
Language                                 : Spanish
Default                                  : Yes
Forced                                   : No

Audio #2
ID                                       : 3
Format                                   : AC-3
Format/Info                              : Audio Coding 3
Mode extension                           : CM (complete main)
Format settings, Endianness              : Big
Codec ID                                 : A_AC3
Duration                                 : 1h 56mn
Bit rate mode                            : Constant
Bit rate                                 : 640 Kbps
Channel(s)                               : 6 channels
Channel positions                        : Front: L C R, Side: L R, LFE
Sampling rate                            : 48.0 KHz
Bit depth                                : 16 bits
Compression mode                         : Lossy
Stream size                              : 531 MiB (4%)
Title                                    : www.club-hd.com > Inglés AC3 5.1
Language                                 : English
Default                                  : No
Forced                                   : No

Audio #3
ID                                       : 4
Format                                   : DTS
Format/Info                              : Digital Theater Systems
Mode                                     : 16
Format settings, Endianness              : Big
Codec ID                                 : A_DTS
Duration                                 : 1h 56mn
Bit rate mode                            : Constant
Bit rate                                 : 1 509 Kbps
Channel(s)                               : 6 channels
Channel positions                        : Front: L C R, Side: L R, LFE
Sampling rate                            : 48.0 KHz
Bit depth                                : 24 bits
Compression mode                         : Lossy
Stream size                              : 1.22 GiB (10%)
Title                                    : www.club-hd.com > Inglés DTS 5.1
Language                                 : English
Default                                  : No
Forced                                   : No

Text
ID                                       : 5
Format                                   : VobSub
Muxing mode                              : zlib
Codec ID                                 : S_VOBSUB
Codec ID/Info                            : The same subtitle format used on DVDs
Language                                 : Spanish
Default                                  : No
Forced                                   : No

Menu
00:00:00.000                             : en:00:00:00.000
00:05:05.180                             : en:00:05:05.180
00:13:04.659                             : en:00:13:04.659
00:20:31.188                             : en:00:20:31.188
00:27:02.579                             : en:00:27:02.579
00:32:38.039                             : en:00:32:38.039
00:39:35.331                             : en:00:39:35.331
00:49:06.152                             : en:00:49:06.152
00:55:22.027                             : en:00:55:22.027
01:01:41.239                             : en:01:01:41.239
01:09:18.654                             : en:01:09:18.654
01:17:03.035                             : en:01:17:03.035
01:22:09.842                             : en:01:22:09.842
01:27:51.558                             : en:01:27:51.558
01:36:41.587                             : en:01:36:41.587
01:45:14.099                             : en:01:45:14.099
01:48:46.645                             : en:01:48:46.645




Descarga.jpg



MEGA.jpg

Tenemos TODO el material de Club-HD disponible por Mega, enlaces 100% activos y online hasta la fecha

Llévate tus cuentas Mega PRO III gratis con tu membresía VIP!
Todos los posts vivos con links de Mega.
Todo el material de Club-HD desbloqueado y sin publicidad.

Obtén más información sobre nuestras Membresías VIP


UPLOADED_BANNER.png

Para ver este contenido oculto, debes dar click en el botón"Like", o cualquiera de las otras reacciones:

Me Gusta Me Gusta, Me Encanta Me Encanta, Jaja Jaja, Wow Wow, Triste Triste, Molesto Molesto

 
Última edición por un moderador:
hubiese sabido antes que estaba en 3D esperaba un poco y me la bajaba u.u
 
Volver