World War Z (2013) UNRATED 1080p BDRip Dual Latino-Inglés [Subt. Esp] (Acción. Ciencia ficción)

Maestro Revolver

Well-known member
Miembro del Staff
Administrador
Registro
9 Ago 2012
Mensajes
3.567








TÍTULO ORIGINAL: World War Z
AÑO: 2013
DURACIÓN: 116 min.
PAÍS: USA
DIRECTOR: Marc Forster
GUIÓN: J. Michael Straczynski, Matthew Michael Carnahan (Novela: Max Brooks)
REPARTO: Brad Pitt, Mireille Enos, Daniella Kertesz, David Morse, Matthew Fox, Eric West, James Badge Dale, David Andrews, Peter Capaldi, Ludi Boeken, Fana Mokoena, Abigail Hargrove, Elyes Gabel, Pierfrancesco Favino, Moritz Bleibtreu, Ruth Negga
PRODUCTORA: Paramount Pictures / Skydance Productions / GK Films / Plan B Entertainment / Apparatus Productions / Hemisphere Media Capital / Latina Pictures
GÉNERO: Acción. Thriller. Terror. Ciencia ficción | Zombis. 3-D. Pandemias
: http://www.imdb.com/title/tt0816711/






Cuando el mundo comienza a ser invadido por una pandemia de muertos vivientes, el experto investigador de las Naciones Unidas Gerry Lane (Brad Pitt) intentará evitar lo que podría ser el fin de la civilización en una carrera contra el tiempo y el destino. La destrucción a la que se ve sometida la raza humana le hace recorrer el mundo entero buscando respuestas sobre cómo parar la horrible epidemia que amenaza a toda la humanidad, intentando salvar las vidas de millones de desconocidos así como la de su propia familia.
























La pelicula NO tiene ninguna marca... solo colocamos el nombre de esta web en las capturas






Código:
General
Format                                   : Matroska
Format version                           : Version 2
File size                                : 10.0 GiB
Duration                                 : 2h 3mn
Overall bit rate                         : 11.6 Mbps
Movie name                               : www.club-hd.com
Encoded date                             : UTC 2013-09-03 15:49:03
Writing application                      : mkvmerge v5.7.0 ('The Whirlwind') built on Jul  8 2012 20:08:51
Writing library                          : libebml v1.2.3 + libmatroska v1.3.0

Video
ID                                       : 1
Format                                   : AVC
Format/Info                              : Advanced Video Codec
Format profile                           : Main@L4.0
Format settings, CABAC                   : Yes
Format settings, ReFrames                : 4 frames
Codec ID                                 : V_MPEG4/ISO/AVC
Bit rate                                 : 9 000 Kbps
Width                                    : 1 920 pixels
Height                                   : 800 pixels
Display aspect ratio                     : 2.40:1
Frame rate mode                          : Variable
Color space                              : YUV
Chroma subsampling                       : 4:2:0
Bit depth                                : 8 bits
Scan type                                : Progressive
Title                                    : www.club-hd.com
Writing library                          : x264 core 130 r2273 b3065e6
Language                                 : English
Default                                  : Yes
Forced                                   : No
Color primaries                          : BT.709
Transfer characteristics                 : BT.709
Matrix coefficients                      : BT.709

Audio #1
ID                                       : 2
Format                                   : AC-3
Format/Info                              : Audio Coding 3
Mode extension                           : CM (complete main)
Format settings, Endianness              : Big
Codec ID                                 : A_AC3
Duration                                 : 2h 3mn
Bit rate mode                            : Constant
Bit rate                                 : 640 Kbps
Channel(s)                               : 6 channels
Channel positions                        : Front: L C R, Side: L R, LFE
Sampling rate                            : 48.0 KHz
Bit depth                                : 16 bits
Compression mode                         : Lossy
Stream size                              : 563 MiB (5%)
Title                                    : www.club-hd.com > Latino AC3 5.1
Language                                 : Spanish
Default                                  : Yes
Forced                                   : No

Audio #2
ID                                       : 3
Format                                   : AC-3
Format/Info                              : Audio Coding 3
Mode extension                           : CM (complete main)
Format settings, Endianness              : Big
Codec ID                                 : A_AC3
Duration                                 : 2h 3mn
Bit rate mode                            : Constant
Bit rate                                 : 640 Kbps
Channel(s)                               : 6 channels
Channel positions                        : Front: L C R, Side: L R, LFE
Sampling rate                            : 48.0 KHz
Bit depth                                : 16 bits
Compression mode                         : Lossy
Stream size                              : 563 MiB (5%)
Title                                    : www.club-hd.com > Inglés AC3 5.1
Language                                 : English
Default                                  : No
Forced                                   : No

Audio #3
ID                                       : 4
Format                                   : DTS
Format/Info                              : Digital Theater Systems
Mode                                     : 16
Format settings, Endianness              : Big
Codec ID                                 : A_DTS
Duration                                 : 2h 3mn
Bit rate mode                            : Constant
Bit rate                                 : 1 509 Kbps
Channel(s)                               : 6 channels
Channel positions                        : Front: L C R, Side: L R, LFE
Sampling rate                            : 48.0 KHz
Bit depth                                : 24 bits
Compression mode                         : Lossy
Stream size                              : 1.30 GiB (13%)
Title                                    : www.club-hd.com > Inglés DTS 5.1
Language                                 : English
Default                                  : No
Forced                                   : No

Text
ID                                       : 5
Format                                   : UTF-8
Codec ID                                 : S_TEXT/UTF8
Codec ID/Info                            : UTF-8 Plain Text
Language                                 : Spanish
Default                                  : No
Forced                                   : No

Menu
00:00:00.000                             : en:Chapter 1
00:05:05.197                             : en:Chapter 2
00:13:54.017                             : en:Chapter 3
00:22:43.212                             : en:Chapter 4
00:29:46.051                             : en:Chapter 5
00:35:21.511                             : en:Chapter 6
00:42:23.475                             : en:Chapter 7
00:52:37.964                             : en:Chapter 8
00:58:53.839                             : en:Chapter 9
01:07:18.885                             : en:Chapter 10
01:15:11.774                             : en:Chapter 11
01:24:02.054                             : en:Chapter 12
01:29:08.819                             : en:Chapter 13
01:34:50.535                             : en:Chapter 14
01:43:45.486                             : en:Chapter 15
01:52:17.998                             : en:Chapter 16
01:55:51.670                             : en:Chapter 17








Enlaces de Mega y Google Drive solo disponibles para Miembros VIP

Compra tu Membresía VIP y apoya a Club-HD!

ATENCIÓN! Tenemos TODO el material de Club-HD disponible por Mega y Google Drive, enlaces 100% activos y online hasta la fecha

Llévate tus cuentas Mega PRO III gratis con tu membresía VIP!
Todos los posts vivos con links de Mega y Google Drive.
Todo el material de Club-HD desbloqueado y sin publicidad.

Click Aquí para más información.


Para ver este contenido oculto, debes dar click en una de las siguientes reacciones : Like Like, Love Love, Haha Haha, Wow Wow, Sad Sad, Angry Angry

 
Última edición por un moderador:

AleMan80

New member
Registro
30 Ago 2012
Mensajes
1.123
Ubicación
Buenos Aires
:OHHH: Pero que impresionante .... Hurr4hHurr4hHurr4h
Hace tan solo Un mes que estuvo en las carteleras de los Cines, jamás me imagine que ibas a traer esta Pelicula tan rápido y en formato LATINO
MIL GRACIAS Revolver :pgarb:, realmente me sorprendistes :LXR::LXR::LXR::LXR::LXR:
 

Joker

Well-known member
Ex Staff
Registro
27 Ago 2012
Mensajes
1.349
Ubicación
Arkham Asylum
Desc_g_

Es un pájaro! Es un avión! No! Es Super Revolver!! Ne0

Otro gran estreno!! :OHHH:

Esta película también la esperaba desde que la vi en el cine... Se veía buena en los cortos que pasaban en las demás películas y lo es, algo diferente a las películas de Zombies a las que estaba acostumbrado pero me gusto Tb_up3

Gracias! Muchas gracias Master!!!

Saludos :D

:aplausos::aplausos::aplausos:
 

Usuarios Que Están Viendo Este Tema (Total: 1, Miembros: 0, Invitados: 1)

Quién Leyó Este Tema (Total Miembros: 6)

Arriba