• Buenos dias amigos del club. Les queremos avisar que ya recuperamos el acceso a las webs de las Membresías VIP y del Paste. Asi que ya pueden comprar sus membresías y descargar todos los estrenos nuevamente.

WWE Money in the Bank (2024) 1080p PCOK WEB-DL Latino (Wrestling. Sports)

Rex

Ex Bebe

Moderador
Uploader
Registro
12 Mar 2018
Mensajes
1.330
Reacciones (ptje)
37.761
MITB-2024.png


rSINOPSIS.png


La edición 2024 de Money in the Bank es un próximo evento de lucha libre profesional producido por la compañía estadounidense WWE. Será el decimoquinto evento anual de Money in the Bank y se llevará a cabo el sábado 6 de julio de 2024 en el Scotiabank Arena en Toronto, Ontario, Canadá. El evento será transmitido a través de pay-per-view (PPV) y en vivo por streaming, y contará con luchadores de las divisiones de Raw y SmackDown de la promoción. Esta será la primera vez que Money in the Bank se celebre en Canadá y la segunda vez fuera de Estados Unidos, después del evento de 2023. El evento gira en torno al Money in the Bank ladder match, una lucha de escaleras de varios participantes en la que compiten por obtener un contrato que otorga al ganador una oportunidad por un campeonato de su elección en cualquier momento dentro del próximo año.

rMEDIAINFO.png



Código:
File size                                : 11.9 GiB
Duration                                 : 3 h 2 min
Overall bit rate mode                    : Variable
Overall bit rate                         : 9 354 kb/s
Frame rate                               : 59.940 FPS
Encoded date                             : 2024-07-07 03:30:34 UTC
Writing application                      : mkvmerge v63.0.0 ('Everything') 32-bit
Writing library                          : libebml v1.4.2 + libmatroska v1.6.4

Video
ID                                       : 1
Format                                   : AVC
Format/Info                              : Advanced Video Codec
Format profile                           : [email protected]
Format settings                          : CABAC / 4 Ref Frames
Format settings, CABAC                   : Yes
Format settings, Reference frames        : 4 frames
Codec ID                                 : V_MPEG4/ISO/AVC
Duration                                 : 3 h 2 min
Bit rate mode                            : Variable
Bit rate                                 : 8 966 kb/s
Maximum bit rate                         : 10 000 kb/s
Width                                    : 1 920 pixels
Height                                   : 1 080 pixels
Display aspect ratio                     : 16:9
Active Format Description                : Full frame 16:9 image
Frame rate mode                          : Constant
Frame rate                               : 59.940 (60000/1001) FPS
Standard                                 : Component
Color space                              : YUV
Chroma subsampling                       : 4:2:0
Bit depth                                : 8 bits
Scan type                                : Progressive
Bits/(Pixel*Frame)                       : 0.072
Stream size                              : 11.4 GiB (96%)
Default                                  : Yes
Forced                                   : No
Color range                              : Limited
Color primaries                          : BT.709
Transfer characteristics                 : BT.709
Matrix coefficients                      : BT.709

Audio
ID                                       : 2
Format                                   : E-AC-3
Format/Info                              : Enhanced AC-3
Commercial name                          : Dolby Digital Plus
Codec ID                                 : A_EAC3
Duration                                 : 3 h 2 min
Bit rate mode                            : Constant
Bit rate                                 : 384 kb/s
Channel(s)                               : 6 channels
Channel layout                           : L R C LFE Ls Rs
Sampling rate                            : 48.0 kHz
Frame rate                               : 31.250 FPS (1536 SPF)
Compression mode                         : Lossy
Stream size                              : 501 MiB (4%)
Title                                    : Español
Language                                 : Spanish
Service kind                             : Complete Main
Default                                  : Yes
Forced                                   : No
Dialog Normalization                     : -24 dB
compr                                    : -0.28 dB
dmixmod                                  : Lt/Rt
ltrtcmixlev                              : -3.0 dB
ltrtsurmixlev                            : -3.0 dB
lorocmixlev                              : -3.0 dB
lorosurmixlev                            : -3.0 dB
dialnorm_Average                         : -24 dB
dialnorm_Minimum                         : -24 dB
dialnorm_Maximum                         : -24 dB

rCAPTURAS.png


Money.in.the.Bank.2024.Espanol.2024.1080p.PCOK.WEB-DL.DDP5.1.HFR.H.264-REX.mkv_snapshot_00.00.58.559.jpg

Money.in.the.Bank.2024.Espanol.2024.1080p.PCOK.WEB-DL.DDP5.1.HFR.H.264-REX.mkv_snapshot_00.15.40.840.jpg

Money.in.the.Bank.2024.Espanol.2024.1080p.PCOK.WEB-DL.DDP5.1.HFR.H.264-REX.mkv_snapshot_00.30.46.545.jpg

Money.in.the.Bank.2024.Espanol.2024.1080p.PCOK.WEB-DL.DDP5.1.HFR.H.264-REX.mkv_snapshot_01.34.07.142.jpg

Money.in.the.Bank.2024.Espanol.2024.1080p.PCOK.WEB-DL.DDP5.1.HFR.H.264-REX.mkv_snapshot_01.08.04.881.jpg



rDESCARGA.png


hostMEGAvip.png

Tenemos TODO el material de Club-HD disponible por Mega, enlaces 100% activos y online hasta la fecha

Llévate tus cuentas Mega PRO III gratis con tu membresía VIP!
Todos los posts vivos con links de Mega.
Todo el material de Club-HD desbloqueado y sin publicidad.

Obtén más información sobre nuestras Membresías VIP

ENLACES FREE

hostDOODRIVE.png


Para ver este contenido oculto, debes dar click en el botón"Like", o cualquiera de las otras reacciones:

Me Gusta Me Gusta, Me Encanta Me Encanta, Jaja Jaja, Wow Wow, Triste Triste, Molesto Molesto
host1CLOUDFILE.png


Para ver este contenido oculto, debes dar click en el botón"Like", o cualquiera de las otras reacciones:

Me Gusta Me Gusta, Me Encanta Me Encanta, Jaja Jaja, Wow Wow, Triste Triste, Molesto Molesto
rCONTRASENA.png


www.club-hd.com
 
Última edición:
a la espera que este free los link del evento gracias por darte el tiempo de hacer el trabajo
 
Volver