Serie actualizada X-Men '97: Season 1 (2024) 2160p DV HDR DSNP WEB-DL Latino-Castellano-Inglés [Subt. Lat-Cast]

Rex

Ex Bebe

Moderador
Uploader
Registro
12 Mar 2018
Mensajes
1.296
Reacciones (ptje)
36.657
xxxxx.png


rSINOPSIS.png


Serie de TV (2023). 8 episodios. 'X-Men '97' vuelve a la icónica época de los años 90, donde los X-Men, un grupo de mutantes que utilizan sus asombrosos poderes para proteger a un mundo que los odia y los teme, se enfrentarán a su mayor desafío y a un nuevo, insospechado y peligroso futuro.

rMEDIAINFO.png


El post se irá actualizando a como vayan saliendo los episodios semanales.


Código:
Complete name                            : X-men 97 - 2024 [S01E01] HDR Lat Cast.mkv
Format                                   : Matroska
Format version                           : Version 4
File size                                : 2.84 GiB
Duration                                 : 30 min 30 s
Overall bit rate                         : 13.3 Mb/s
Frame rate                               : 24.000 FPS
Encoded date                             : 2024-03-20 15:09:17 UTC
Writing application                      : mkvmerge v82.0 ('I'm The President') 64-bit
Writing library                          : libebml v1.4.5 + libmatroska v1.7.1

Video
ID                                       : 1
Format                                   : HEVC
Format/Info                              : High Efficiency Video Coding
Format profile                           : Main 10@L5@High
HDR format                               : Dolby Vision, Version 1.0, Profile 8.1, dvhe.08.06, BL+RPU, no metadata compression, HDR10 compatible / SMPTE ST 2086, Version HDR10, HDR10 compatible
Codec ID                                 : V_MPEGH/ISO/HEVC
Duration                                 : 30 min 30 s
Bit rate                                 : 11.8 Mb/s
Width                                    : 3 840 pixels
Height                                   : 2 160 pixels
Display aspect ratio                     : 16:9
Frame rate mode                          : Constant
Frame rate                               : 24.000 FPS
Color space                              : YUV
Chroma subsampling                       : 4:2:0
Bit depth                                : 10 bits
Bits/(Pixel*Frame)                       : 0.059
Stream size                              : 2.51 GiB (88%)
Title                                    : [Club-HD] X-Men '97 (2024) S01 HDR
Language                                 : English
Default                                  : Yes
Forced                                   : No
Color range                              : Limited
Color primaries                          : BT.2020
Transfer characteristics                 : PQ
Matrix coefficients                      : BT.2020 non-constant
Mastering display color primaries        : BT.2020
Mastering display luminance              : min: 0.0000 cd/m2, max: 1000 cd/m2

Audio #1
ID                                       : 2
Format                                   : E-AC-3
Format/Info                              : Enhanced AC-3
Commercial name                          : Dolby Digital Plus
Codec ID                                 : A_EAC3
Duration                                 : 30 min 30 s
Bit rate mode                            : Constant
Bit rate                                 : 256 kb/s
Channel(s)                               : 6 channels
Channel layout                           : L R C LFE Ls Rs
Sampling rate                            : 48.0 kHz
Frame rate                               : 31.250 FPS (1536 SPF)
Compression mode                         : Lossy
Stream size                              : 55.9 MiB (2%)
Title                                    : Latino E-AC3 5.1
Language                                 : Spanish
Service kind                             : Complete Main
Default                                  : Yes
Forced                                   : No

Audio #2
ID                                       : 3
Format                                   : E-AC-3
Format/Info                              : Enhanced AC-3
Commercial name                          : Dolby Digital Plus
Codec ID                                 : A_EAC3
Duration                                 : 30 min 30 s
Bit rate mode                            : Constant
Bit rate                                 : 256 kb/s
Channel(s)                               : 6 channels
Channel layout                           : L R C LFE Ls Rs
Sampling rate                            : 48.0 kHz
Frame rate                               : 31.250 FPS (1536 SPF)
Compression mode                         : Lossy
Stream size                              : 55.9 MiB (2%)
Title                                    : Castellano E.AC3 5.1
Language                                 : Spanish
Service kind                             : Complete Main
Default                                  : Yes
Forced                                   : No

Audio #3
ID                                       : 4
Format                                   : E-AC-3 JOC
Format/Info                              : Enhanced AC-3 with Joint Object Coding
Commercial name                          : Dolby Digital Plus with Dolby Atmos
Codec ID                                 : A_EAC3
Duration                                 : 30 min 30 s
Bit rate mode                            : Constant
Bit rate                                 : 768 kb/s
Channel(s)                               : 6 channels
Channel layout                           : L R C LFE Ls Rs
Sampling rate                            : 48.0 kHz
Frame rate                               : 31.250 FPS (1536 SPF)
Compression mode                         : Lossy
Stream size                              : 168 MiB (6%)
Title                                    : Inglés E-AC3 5.1
Language                                 : English
Service kind                             : Complete Main
Default                                  : Yes
Forced                                   : No
Complexity index                         : 16
Number of dynamic objects                : 15
Bed channel count                        : 1 channel
Bed channel configuration                : LFE

Text #1
ID                                       : 5
Format                                   : UTF-8
Codec ID                                 : S_TEXT/UTF8
Codec ID/Info                            : UTF-8 Plain Text
Title                                    : Latin America Spanish
Language                                 : Spanish
Default                                  : No
Forced                                   : No

Text #2
ID                                       : 6
Format                                   : UTF-8
Codec ID                                 : S_TEXT/UTF8
Codec ID/Info                            : UTF-8 Plain Text
Title                                    : European Spanish
Language                                 : Spanish
Default                                  : No
Forced                                   : No

Text #3
ID                                       : 7
Format                                   : UTF-8
Codec ID                                 : S_TEXT/UTF8
Codec ID/Info                            : UTF-8 Plain Text
Title                                    : Forzados Latino
Language                                 : Spanish
Default                                  : Yes
Forced                                   : Yes

Text #4
ID                                       : 8
Format                                   : UTF-8
Codec ID                                 : S_TEXT/UTF8
Codec ID/Info                            : UTF-8 Plain Text
Title                                    : Forzados Castellano
Language                                 : Spanish
Default                                  : Yes
Forced                                   : No

Menu
00:00:00.000                             : en:Scene 1
00:00:04.000                             : en:Intro
00:01:15.000                             : en:Scene 2
00:05:02.125                             : en:Scene 3
00:13:42.625                             : en:Scene 4
00:24:48.958                             : en:Scene 5
00:28:32.500                             : en:Credits

rCAPTURAS.png


X-men%2097%20-%202024%20%5BS01E02%5D%20HDR%20Lat%20Cast.mkv_snapshot_05.00.000.jpg

X-men%2097%20-%202024%20%5BS01E02%5D%20HDR%20Lat%20Cast.mkv_snapshot_09.30.833.jpg

X-men%2097%20-%202024%20%5BS01E02%5D%20HDR%20Lat%20Cast.mkv_snapshot_14.01.401.jpg

X-men%2097%20-%202024%20%5BS01E03%5D%20HDR%20Lat%20Cast.mkv_snapshot_06.24.792.jpg

X-men%2097%20-%202024%20%5BS01E03%5D%20HDR%20Lat%20Cast.mkv_snapshot_14.16.000.jpg

X-men%2097%20-%202024%20%5BS01E04%5D%20HDR%20Lat%20Cast.mkv_snapshot_02.40.000.jpg



rDESCARGA.png


hostMEGAvip.png

Tenemos TODO el material de Club-HD disponible por Mega, enlaces 100% activos y online hasta la fecha

Llévate tus cuentas Mega PRO III gratis con tu membresía VIP!
Todos los posts vivos con links de Mega.
Todo el material de Club-HD desbloqueado y sin publicidad.

Obtén más información sobre nuestras Membresías VIP

 
Última edición por un moderador:
HDR se mira hermoso en mi lg oled c1.
Para cuando el cap 6? :cool:
 
ACTUALIZADO PARA VIPS
 
@xRyuux Ya quedo, alguien me habia tocado el post
 
Bueno, hasta aqui llego esta primera temporada, con un hermoso final, espero luego poder seguir cuando salga su S02.
 
Volver