2 Fast 2 Furious (2003) 1080p BDRip Dual Latino-Inglés [Subt. Esp] (Acción)

Maestro Revolver

Administrador
Registro
9 Ago 2012
Mensajes
3.157
Reacciones (ptje)
54.925


2-f-2-f-1080p.jpg




FichaTecnica.jpg


TÍTULO ORIGINAL: 2 Fast 2 Furious (AKA The Fast and the Furious 2)
AÑO: 2003
DURACIÓN: 100 min.
PAÍS: USA
DIRECTOR: John Singleton
GUIÓN: Derek Haas & Michael Brandt (Personajes: Gary Scott Thompson)
REPARTO: Paul Walker, Tyrese Gibson, Eva Mendes, Cole Hauser, Ludacris, Thom Barry, James Remar, Mark Boone Junior
PRODUCTORA: Universal Pictures
GÉNERO: Acción. Thriller | Secuela. Coches / Automovilismo
imdb-logo.png
: http://www.imdb.com/title/tt0322259/




Sinopsis.jpg


Secuela de "A todo gas" (The Fast and the Furious). Brian O'Connor (Paul Walker), un policía caído en desgracia, fue un adicto a la velocidad y ahora está pagando un precio por ello. Tal y como lo ven sus antiguos jefes y los altos mandos del FBI, este agente de incógnito les echó a perder una de las investigaciones más importantes que habían emprendido. Al ver sus distintas lealtades puestas a prueba tras haberse infiltrado en el mundo de las carreras clandestinas nocturnas de Los Angeles, O’Connor destapó su identidad y dejó huir –montado en su moto de carreras preparada- al jefe de una banda criminal. La decisión de O’Connor le permitió conservar su honor, pero le hizo perder su insignia y toda posibilidad de rehabilitarse. Ahora ha pasado el tiempo, O’Connor está en otra ciudad y tiene una última oportunidad. A los federales de Miami les está costando mucho detener a Carter Vellone (Cole Hauser), un empresario que utiliza su negocio de importación y exportación como tapadera para un cartel internacional de blanqueo de dinero. Aduanas lleva un año sometiendo a Verone a una estricta vigilancia, y lo único que han podido establecer es su relación con las carreras callejeras ilegales. El tiempo se acaba, y los agentes deciden llamar a O’Connor para que haga lo que sabe hacer mejor que nadie: volver a infiltrarse entre los conductores. Pero este hombre individualista poco amigo de los reglamentos pone algunas condiciones para aceptar la misión que puede permitirle recuperar su insignia. El primero: trabajar con su amigo de infancia y antiguo delincuente Roman Pearce (Tyrese), otro enfermo de la velocidad.




Trailer.jpg






Capturas.jpg


1.jpg


2.jpg


3.jpg


4.jpg


5.jpg


6.jpg


La pelicula NO tiene ninguna marca... solo colocamos el nombre de esta web en las capturas




MediaInfo.jpg


Código:
General
Format                                   : Matroska
Format version                           : Version 2
File size                                : 9.57 GiB
Duration                                 : 1h 47mn
Overall bit rate                         : 12.7 Mbps
Movie name                               : www.club-hd.com
Encoded date                             : UTC 2013-09-03 01:20:08
Writing application                      : mkvmerge v5.7.0 ('The Whirlwind') built on Jul  8 2012 20:08:51
Writing library                          : libebml v1.2.3 + libmatroska v1.3.0

Video
ID                                       : 1
Format                                   : AVC
Format/Info                              : Advanced Video Codec
Format profile                           : [email protected]
Format settings, CABAC                   : Yes
Format settings, ReFrames                : 4 frames
Codec ID                                 : V_MPEG4/ISO/AVC
Duration                                 : 1h 47mn
Bit rate                                 : 10.1 Mbps
Width                                    : 1 920 pixels
Height                                   : 816 pixels
Display aspect ratio                     : 2.35:1
Frame rate mode                          : Constant
Frame rate                               : 23.976 fps
Color space                              : YUV
Chroma subsampling                       : 4:2:0
Bit depth                                : 8 bits
Scan type                                : Progressive
Bits/(Pixel*Frame)                       : 0.269
Stream size                              : 7.42 GiB (78%)
Title                                    : www.club-hd.com
Writing library                          : x264 core 66 r1115M 11863ac
Language                                 : English
Default                                  : Yes
Forced                                   : No

Audio #1
ID                                       : 2
Format                                   : AC-3
Format/Info                              : Audio Coding 3
Mode extension                           : CM (complete main)
Format settings, Endianness              : Big
Codec ID                                 : A_AC3
Duration                                 : 1h 47mn
Bit rate mode                            : Constant
Bit rate                                 : 448 Kbps
Channel(s)                               : 6 channels
Channel positions                        : Front: L C R, Side: L R, LFE
Sampling rate                            : 48.0 KHz
Bit depth                                : 16 bits
Compression mode                         : Lossy
Delay relative to video                  : 100ms
Stream size                              : 345 MiB (4%)
Title                                    : www.club-hd.com  -->  Latino AC3 5.1
Language                                 : Spanish
Default                                  : Yes
Forced                                   : No

Audio #2
ID                                       : 3
Format                                   : AC-3
Format/Info                              : Audio Coding 3
Mode extension                           : CM (complete main)
Format settings, Endianness              : Big
Codec ID                                 : A_AC3
Duration                                 : 1h 47mn
Bit rate mode                            : Constant
Bit rate                                 : 640 Kbps
Channel(s)                               : 6 channels
Channel positions                        : Front: L C R, Side: L R, LFE
Sampling rate                            : 48.0 KHz
Bit depth                                : 16 bits
Compression mode                         : Lossy
Stream size                              : 493 MiB (5%)
Title                                    : www.club-hd.com  -->  Inglés AC3 5.1
Language                                 : English
Default                                  : No
Forced                                   : No

Audio #3
ID                                       : 4
Format                                   : DTS
Format/Info                              : Digital Theater Systems
Mode                                     : 16
Format settings, Endianness              : Big
Codec ID                                 : A_DTS
Duration                                 : 1h 47mn
Bit rate mode                            : Constant
Bit rate                                 : 1 509 Kbps
Channel(s)                               : 6 channels
Channel positions                        : Front: L C R, Side: L R, LFE
Sampling rate                            : 48.0 KHz
Bit depth                                : 24 bits
Compression mode                         : Lossy
Stream size                              : 1.14 GiB (12%)
Title                                    : www.club-hd.com  -->  Inglés DTS 5.1
Language                                 : English
Default                                  : No
Forced                                   : No

Text
ID                                       : 5
Format                                   : UTF-8
Codec ID                                 : S_TEXT/UTF8
Codec ID/Info                            : UTF-8 Plain Text
Language                                 : Spanish
Default                                  : No
Forced                                   : No




Descarga.jpg



MEGA.jpg

Tenemos TODO el material de Club-HD disponible por Mega, enlaces 100% activos y online hasta la fecha

Llévate tus cuentas Mega PRO III gratis con tu membresía VIP!
Todos los posts vivos con links de Mega.
Todo el material de Club-HD desbloqueado y sin publicidad.

Obtén más información sobre nuestras Membresías VIP



1FICHIER-BANNER.png

Tenemos TODO el material de Club-HD disponible por Mega, enlaces 100% activos y online hasta la fecha

Llévate tus cuentas Mega PRO III gratis con tu membresía VIP!
Todos los posts vivos con links de Mega.
Todo el material de Club-HD desbloqueado y sin publicidad.

Obtén más información sobre nuestras Membresías VIP



UPLOADED_BANNER.png

Para ver este contenido oculto, debes dar click en el botón"Like", o cualquiera de las otras reacciones:

Me Gusta Me Gusta, Me Encanta Me Encanta, Jaja Jaja, Wow Wow, Triste Triste, Molesto Molesto
 
Última edición por un moderador:
Esta pelicula en especial me acuerdo cuando la rente en Dvd para verla y aproveche y la Clone :plmfc: l0l Gracias master. Ya ahora tambien en 1080p
 
Volver