2 Guns (2013) 1080p BDRip Dual Latino-Inglés [Subt. Esp] (Thriller. Acción. Comedia)

Maestro Revolver

Administrador
Registro
9 Ago 2012
Mensajes
3.157
Reacciones (ptje)
55.042

2Guns-1080p.jpg




FichaTecnica.jpg


TÍTULO ORIGINAL: 2 Guns
AÑO: 2013
DURACIÓN: 109 min.
PAÍS: USA
DIRECTOR: Baltasar Kormákur
GUIÓN: Blake Masters (Novela gráfica: Steven Grant)
REPARTO: Mark Wahlberg, Denzel Washington, Paula Patton, Bill Paxton, Fred Ward, James Marsden, Edward James Olmos, Robert John Burke, Greg Sproles, Patrick Fischler, Edgar Arreola, Derek Solorsano, Kyle Russell Clements, Christopher Matthew Cook
PRODUCTORA: Universal Pictures / Emmett/Furla Films / Boom Entertainment / Envision Entertainment Corporation
GÉNERO: Thriller. Acción. Comedia | Policíaco. Crimen. Cómic. Buddy Film
imdb-logo.png
: http://www.imdb.com/title/tt1272878/




Sinopsis.jpg


Un agente de la DEA, Bobby Trench (Denzel Washington), y un oficial de la Inteligencia Naval, Michael Stigman (Mark Wahlberg), consiguen robarle 43 millones de dólares a la mafia. El problema consiste en que en realidad ese dinero no era de la organización criminal, sino de la CIA. Adaptación al cine de una novela gráfica de Steven Grant.




Trailer.jpg






Capturas.jpg


1.jpg


2.jpg


3.jpg


4.jpg


5.jpg


6.jpg


La pelicula NO tiene ninguna marca... solo colocamos el nombre de esta web en las capturas




MediaInfo.jpg


Código:
General
Format                                   : Matroska
Format version                           : Version 2
File size                                : 9.21 GiB
Duration                                 : 1h 49mn
Overall bit rate                         : 12.1 Mbps
Movie name                               : www.club-hd.com
Encoded date                             : UTC 2013-11-10 16:19:45
Writing application                      : mkvmerge v5.7.0 ('The Whirlwind') built on Jul  8 2012 20:08:51
Writing library                          : libebml v1.2.3 + libmatroska v1.3.0

Video
ID                                       : 1
Format                                   : AVC
Format/Info                              : Advanced Video Codec
Format profile                           : [email protected]
Format settings, CABAC                   : Yes
Format settings, ReFrames                : 5 frames
Codec ID                                 : V_MPEG4/ISO/AVC
Duration                                 : 1h 49mn
Bit rate                                 : 8 513 Kbps
Width                                    : 1 920 pixels
Height                                   : 800 pixels
Display aspect ratio                     : 2.40:1
Frame rate mode                          : Constant
Frame rate                               : 23.976 fps
Color space                              : YUV
Chroma subsampling                       : 4:2:0
Bit depth                                : 8 bits
Scan type                                : Progressive
Bits/(Pixel*Frame)                       : 0.231
Stream size                              : 6.31 GiB (69%)
Title                                    : www.club-hd.com
Writing library                          : x264 core 140 r2377 1ca7bb9
Language                                 : English
Default                                  : Yes
Forced                                   : No

Audio #1
ID                                       : 2
Format                                   : DTS
Format/Info                              : Digital Theater Systems
Mode                                     : 16
Format settings, Endianness              : Big
Codec ID                                 : A_DTS
Duration                                 : 1h 49mn
Bit rate mode                            : Constant
Bit rate                                 : 768 Kbps
Channel(s)                               : 6 channels
Channel positions                        : Front: L C R, Side: L R, LFE
Sampling rate                            : 48.0 KHz
Bit depth                                : 24 bits
Compression mode                         : Lossy
Stream size                              : 600 MiB (6%)
Title                                    : www.club-hd.com  >>  Latino DTS 5.1
Language                                 : Spanish
Default                                  : Yes
Forced                                   : No

Audio #2
ID                                       : 3
Format                                   : AC-3
Format/Info                              : Audio Coding 3
Mode extension                           : CM (complete main)
Format settings, Endianness              : Big
Codec ID                                 : A_AC3
Duration                                 : 1h 49mn
Bit rate mode                            : Constant
Bit rate                                 : 640 Kbps
Channel(s)                               : 6 channels
Channel positions                        : Front: L C R, Side: L R, LFE
Sampling rate                            : 48.0 KHz
Bit depth                                : 16 bits
Compression mode                         : Lossy
Stream size                              : 500 MiB (5%)
Title                                    : www.club-hd.com  >>  Latino AC3 5.1
Language                                 : Spanish
Default                                  : No
Forced                                   : No

Audio #3
ID                                       : 4
Format                                   : AC-3
Format/Info                              : Audio Coding 3
Mode extension                           : CM (complete main)
Format settings, Endianness              : Big
Codec ID                                 : A_AC3
Duration                                 : 1h 49mn
Bit rate mode                            : Constant
Bit rate                                 : 640 Kbps
Channel(s)                               : 6 channels
Channel positions                        : Front: L C R, Side: L R, LFE
Sampling rate                            : 48.0 KHz
Bit depth                                : 16 bits
Compression mode                         : Lossy
Stream size                              : 500 MiB (5%)
Title                                    : www.club-hd.com  >>  Inglés AC3 5.1
Language                                 : English
Default                                  : No
Forced                                   : No

Audio #4
ID                                       : 5
Format                                   : DTS
Format/Info                              : Digital Theater Systems
Mode                                     : 16
Format settings, Endianness              : Big
Codec ID                                 : A_DTS
Duration                                 : 1h 49mn
Bit rate mode                            : Constant
Bit rate                                 : 1 509 Kbps
Channel(s)                               : 6 channels
Channel positions                        : Front: L C R, Side: L R, LFE
Sampling rate                            : 48.0 KHz
Bit depth                                : 24 bits
Compression mode                         : Lossy
Stream size                              : 1.15 GiB (13%)
Title                                    : www.club-hd.com  >>  Inglés DTS 5.1
Language                                 : English
Default                                  : No
Forced                                   : No

Text #1
ID                                       : 6
Format                                   : UTF-8
Codec ID                                 : S_TEXT/UTF8
Codec ID/Info                            : UTF-8 Plain Text
Title                                    : Forzados
Language                                 : Spanish
Default                                  : Yes
Forced                                   : No

Text #2
ID                                       : 7
Format                                   : UTF-8
Codec ID                                 : S_TEXT/UTF8
Codec ID/Info                            : UTF-8 Plain Text
Title                                    : Completos
Language                                 : Spanish
Default                                  : No
Forced                                   : No

Menu
00:00:00.000                             : en:00:00:00.000
00:05:36.044                             : en:00:05:36.044
00:10:44.185                             : en:00:10:44.185
00:15:15.206                             : en:00:15:15.206
00:20:42.283                             : en:00:20:42.283
00:24:47.736                             : en:00:24:47.736
00:29:20.842                             : en:00:29:20.842
00:36:24.099                             : en:00:36:24.099
00:40:56.371                             : en:00:40:56.371
00:45:39.278                             : en:00:45:39.278
00:52:17.051                             : en:00:52:17.051
00:58:13.782                             : en:00:58:13.782
01:05:49.988                             : en:01:05:49.988
01:10:28.683                             : en:01:10:28.683
01:14:35.388                             : en:01:14:35.388
01:20:14.560                             : en:01:20:14.560
01:24:46.915                             : en:01:24:46.915
01:31:11.925                             : en:01:31:11.925
01:38:23.648                             : en:01:38:23.648
01:41:02.640                             : en:01:41:02.640




Descarga.jpg



MEGA-BANNER.png

Tenemos TODO el material de Club-HD disponible por Mega, enlaces 100% activos y online hasta la fecha

Llévate tus cuentas Mega PRO III gratis con tu membresía VIP!
Todos los posts vivos con links de Mega.
Todo el material de Club-HD desbloqueado y sin publicidad.

Obtén más información sobre nuestras Membresías VIP


UPLOADED_BANNER.png

Para ver este contenido oculto, debes dar click en el botón"Like", o cualquiera de las otras reacciones:

Me Gusta Me Gusta, Me Encanta Me Encanta, Jaja Jaja, Wow Wow, Triste Triste, Molesto Molesto

google-drive.png

Para ver este contenido oculto, debes dar click en el botón"Like", o cualquiera de las otras reacciones:

Me Gusta Me Gusta, Me Encanta Me Encanta, Jaja Jaja, Wow Wow, Triste Triste, Molesto Molesto
 
Última edición por un moderador:
a mi esta película en los personal me gusto mucho, tiene cambios pues en la trama que me hicieron creer que algo que se podía esperar y luego no fue como lo crea hay giros muy buenos en la trama pues a descargar gracias master que bueno que el club este de vuelta
 
BUENISIMA .... gracias Bestia !!!
 
Volver