• Buenos dias amigos del club. Les queremos avisar que ya recuperamos el acceso a las webs de las Membresías VIP y del Paste. Asi que ya pueden comprar sus membresías y descargar todos los estrenos nuevamente.

22 Bullets (2010) 720p BDRip Dual Latino-Francés [Subt. Esp] (Acción. Crimen)

Maestro Revolver

Administrador
Registro
9 Ago 2012
Mensajes
3.157
Reacciones (ptje)
55.343


22-Bullets.jpg





FichaTecnica.jpg


TÍTULO ORIGINAL: L'immortel (22 Bullets)
AÑO: 2010
DURACIÓN: 115 min.
PAÍS: Francia
DIRECTOR: Richard Berry
GUIÓN: Eric Assous, Richard Berry, Alexandre de La Patellière, Mathieu Delaporte (Novela: Philippe Claudel, Franz-Olivier Giesbert)
REPARTO: Jean Reno, Kad Merad, Richard Berry, Gabriella Wright, Marina Foïs, Jean-Pierre Darroussin
PRODUCTORA: Europa Corp.
GÉNERO: Acción | Crimen. Mafia
imdb-logo.png
: http://www.imdb.com/title/tt1167638/




Sinopsis.jpg


Un antiguo miembro de la mafia que lleva 3 años retirado, viviendo una plácida vida dedicado a su mujer y a sus hijos, es atacado una mañana por unos hombres y dado por muerto después de recibir 22 balas. Pero sobrevivirá milagrosamente y buscará a Tony Zacchia, el único hombre capaz de atreverse a matarlo. Tony ha cometido solo un error, fallar en su intento.




Trailer.jpg






Capturas.jpg


1.jpg


2.jpg


3.jpg


4.jpg


5.jpg


6.jpg


La pelicula NO tiene ninguna marca... solo colocamos el nombre de esta web en las capturas




MediaInfo.jpg


Código:
General
Format                                   : Matroska
Format version                           : Version 2
File size                                : 4.69 GiB
Duration                                 : 1h 57mn
Overall bit rate                         : 5 734 Kbps
Movie name                               : www.club-hd.com
Encoded date                             : UTC 2014-03-26 01:30:37
Writing application                      : mkvmerge v5.7.0 ('The Whirlwind') built on Jul  8 2012 20:08:51
Writing library                          : libebml v1.2.3 + libmatroska v1.3.0

Video
ID                                       : 1
Format                                   : AVC
Format/Info                              : Advanced Video Codec
Format profile                           : [email protected]
Format settings, CABAC                   : Yes
Format settings, ReFrames                : 9 frames
Muxing mode                              : Header stripping
Codec ID                                 : V_MPEG4/ISO/AVC
Duration                                 : 1h 57mn
Bit rate                                 : 4 709 Kbps
Width                                    : 1 280 pixels
Height                                   : 546 pixels
Display aspect ratio                     : 2.35:1
Frame rate mode                          : Constant
Frame rate                               : 24.000 fps
Color space                              : YUV
Chroma subsampling                       : 4:2:0
Bit depth                                : 8 bits
Scan type                                : Progressive
Bits/(Pixel*Frame)                       : 0.281
Stream size                              : 3.76 GiB (80%)
Title                                    : www.club-hd.com
Writing library                          : x264 core 104 r1713 c276662
Language                                 : English
Default                                  : Yes
Forced                                   : No

Audio #1
ID                                       : 2
Format                                   : AC-3
Format/Info                              : Audio Coding 3
Mode extension                           : CM (complete main)
Format settings, Endianness              : Big
Muxing mode                              : Header stripping
Codec ID                                 : A_AC3
Duration                                 : 1h 57mn
Bit rate mode                            : Constant
Bit rate                                 : 384 Kbps
Channel(s)                               : 6 channels
Channel positions                        : Front: L C R, Side: L R, LFE
Sampling rate                            : 48.0 KHz
Bit depth                                : 16 bits
Compression mode                         : Lossy
Stream size                              : 321 MiB (7%)
Title                                    : www.club-hd.com  >>  Latino
Language                                 : Spanish
Default                                  : Yes
Forced                                   : No

Audio #2
ID                                       : 3
Format                                   : AC-3
Format/Info                              : Audio Coding 3
Mode extension                           : CM (complete main)
Format settings, Endianness              : Big
Muxing mode                              : Header stripping
Codec ID                                 : A_AC3
Duration                                 : 1h 57mn
Bit rate mode                            : Constant
Bit rate                                 : 640 Kbps
Channel(s)                               : 6 channels
Channel positions                        : Front: L C R, Side: L R, LFE
Sampling rate                            : 48.0 KHz
Bit depth                                : 16 bits
Compression mode                         : Lossy
Stream size                              : 536 MiB (11%)
Title                                    : www.club-hd.com  >>  Francés
Language                                 : French
Default                                  : No
Forced                                   : No

Text
ID                                       : 4
Format                                   : UTF-8
Codec ID                                 : S_TEXT/UTF8
Codec ID/Info                            : UTF-8 Plain Text
Language                                 : Spanish
Default                                  : No
Forced                                   : No




Descarga.jpg



MEGA.jpg

Tenemos TODO el material de Club-HD disponible por Mega, enlaces 100% activos y online hasta la fecha

Llévate tus cuentas Mega PRO III gratis con tu membresía VIP!
Todos los posts vivos con links de Mega.
Todo el material de Club-HD desbloqueado y sin publicidad.

Obtén más información sobre nuestras Membresías VIP


UPLOADED_BANNER.png

Para ver este contenido oculto, debes dar click en el botón"Like", o cualquiera de las otras reacciones:

Me Gusta Me Gusta, Me Encanta Me Encanta, Jaja Jaja, Wow Wow, Triste Triste, Molesto Molesto

 
Última edición por un moderador:
se ve temerosa la movie pero todas mangas graciasDesc_g_
 
:aplausos: Por las capturas se ve fenomenal la peli y concuerdo con Sony :dplgar: Esta peli la vi en Tv Pero siempre la miraba a medias. Ahora si la podre ver completa xD Desc_g_ Grande o no se si esa sea la palabra correcta para describir al Club HD :LXR:
 
hay 2 22 bullets la de van van damme y esta Pnsand0 y las 2 las voy a ver porque me Jean Reno tiene una forma de actuar muy buena nunca voy a olvidar El profesional
 
Volver