3:10 to Yuma (2007) 1080p BDRip Dual Latino-Inglés [Subt. Esp] (Western. Acción)

Maestro Revolver

Well-known member
Miembro del Staff
Administrador
Registro
9 Ago 2012
Mensajes
3.567
Aporte Recuperado gracias a nuestro amigo clasaase







TÍTULO ORIGINAL: 3:10 to Yuma
AÑO: 2007
DURACIÓN: 117 min.
PAÍS: USA
DIRECTOR: James Mangold
GUIÓN: Halsted Welles, Michael Brandt, Derek Haas (Historia: Elmore Leonard)
REPARTO: Russell Crowe, Christian Bale, Peter Fonda, Gretchen Mol, Ben Foster, Dallas Roberts, Vinessa Shaw, Kevin Durand, Logan Lerman, Alan Tudyk, Luce Rains, Chris Browning, Johnny Whitworth, Luke Wilson, Benjamin Petry
PRODUCTORA: Lionsgate Films / Relativity Media / Tree Line Films
GÉNERO: Western. Acción | Remake
: http://www.imdb.com/title/tt0381849/


Premios: 2007: 2 nominaciones al Oscar: Mejor banda sonora, mejor sonido
2007: Nominada a Critics' Choice Awards: Mejor compositor (Beltrami)






Arizona. Con la esperanza de conseguir una recompensa que le permita evitar la ruina de su rancho, Dan Evans (Christian Bale) decide colaborar en el traslado del peligroso forajido Ben Wade (Russell Crowe) hasta un pueblo, donde deberán coger el tren de las 3:10 para llegar a la prisión de Yuma. Remake del film de 1957 de Delmer Daves.
























La pelicula NO tiene ninguna marca... solo colocamos el nombre de esta web en las capturas






Código:
General
Format                                   : Matroska
Format version                           : Version 2
File size                                : 10.8 GiB
Duration                                 : 2h 2mn
Overall bit rate                         : 12.7 Mbps
Movie name                               : www.club-hd.com
Encoded date                             : UTC 2013-07-05 23:42:18
Writing application                      : mkvmerge v5.7.0 ('The Whirlwind') built on Jul  8 2012 20:08:51
Writing library                          : libebml v1.2.3 + libmatroska v1.3.0

Video
ID                                       : 1
Format                                   : AVC
Format/Info                              : Advanced Video Codec
Format profile                           : High@L5.1
Format settings, CABAC                   : Yes
Format settings, ReFrames                : 8 frames
Codec ID                                 : V_MPEG4/ISO/AVC
Duration                                 : 2h 2mn
Bit rate                                 : 10.3 Mbps
Width                                    : 1 920 pixels
Height                                   : 800 pixels
Display aspect ratio                     : 2.40:1
Frame rate mode                          : Constant
Frame rate                               : 23.976 fps
Color space                              : YUV
Chroma subsampling                       : 4:2:0
Bit depth                                : 8 bits
Scan type                                : Progressive
Bits/(Pixel*Frame)                       : 0.280
Stream size                              : 8.62 GiB (80%)
Title                                    : www.club-hd.com
Writing library                          : x264 core 57 svn-709C
Language                                 : English
Default                                  : Yes
Forced                                   : No

Audio #1
ID                                       : 2
Format                                   : AC-3
Format/Info                              : Audio Coding 3
Mode extension                           : CM (complete main)
Format settings, Endianness              : Big
Codec ID                                 : A_AC3
Duration                                 : 2h 2mn
Bit rate mode                            : Constant
Bit rate                                 : 192 Kbps
Channel(s)                               : 2 channels
Channel positions                        : Front: L R
Sampling rate                            : 48.0 KHz
Bit depth                                : 16 bits
Compression mode                         : Lossy
Stream size                              : 168 MiB (2%)
Title                                    : www.club-hd.com  >>  Latino AC3 2.0
Language                                 : Spanish
Default                                  : Yes
Forced                                   : No

Audio #2
ID                                       : 3
Format                                   : AC-3
Format/Info                              : Audio Coding 3
Mode extension                           : CM (complete main)
Format settings, Endianness              : Big
Codec ID                                 : A_AC3
Duration                                 : 2h 2mn
Bit rate mode                            : Constant
Bit rate                                 : 640 Kbps
Channel(s)                               : 6 channels
Channel positions                        : Front: L C R, Side: L R, LFE
Sampling rate                            : 48.0 KHz
Bit depth                                : 16 bits
Compression mode                         : Lossy
Stream size                              : 561 MiB (5%)
Title                                    : www.club-hd.com  >>  Inglés AC3 5.1
Language                                 : English
Default                                  : No
Forced                                   : No

Audio #3
ID                                       : 4
Format                                   : DTS
Format/Info                              : Digital Theater Systems
Mode                                     : 16
Format settings, Endianness              : Big
Codec ID                                 : A_DTS
Duration                                 : 2h 2mn
Bit rate mode                            : Constant
Bit rate                                 : 1 510 Kbps
Channel(s)                               : 6 channels
Channel positions                        : Front: L C R, Side: L R, LFE
Sampling rate                            : 48.0 KHz
Bit depth                                : 24 bits
Compression mode                         : Lossy
Stream size                              : 1.29 GiB (12%)
Title                                    : www.club-hd.com  >>  Inglés DTS 5.1
Language                                 : English
Default                                  : No
Forced                                   : No

Text
ID                                       : 5
Format                                   : UTF-8
Codec ID                                 : S_TEXT/UTF8
Codec ID/Info                            : UTF-8 Plain Text
Language                                 : Spanish
Default                                  : No
Forced                                   : No














Todos los links son Intercambiables!



Enlaces de Mega y Google Drive solo disponibles para Miembros VIP

Compra tu Membresía VIP y apoya a Club-HD!

ATENCIÓN! Tenemos TODO el material de Club-HD disponible por Mega y Google Drive, enlaces 100% activos y online hasta la fecha

Llévate tus cuentas Mega PRO III gratis con tu membresía VIP!
Todos los posts vivos con links de Mega y Google Drive.
Todo el material de Club-HD desbloqueado y sin publicidad.

Click Aquí para más información.


Para ver este contenido oculto, debes dar click en una de las siguientes reacciones : Like Like, Love Love, Haha Haha, Wow Wow, Sad Sad, Angry Angry


Para ver este contenido oculto, debes dar click en una de las siguientes reacciones : Like Like, Love Love, Haha Haha, Wow Wow, Sad Sad, Angry Angry


Para ver este contenido oculto, debes dar click en una de las siguientes reacciones : Like Like, Love Love, Haha Haha, Wow Wow, Sad Sad, Angry Angry
 
Última edición por un moderador:

Ezze

Well-known member
Miembro del Staff
Súper Moderador
Miembro VIP
Registro
28 Ago 2012
Mensajes
1.666
Ubicación
En la Torre de Observación
Muchas gracias Revolver :aplausos: Me la llevo en 1080 ;) Nunca la ví, pero por la puntuación parece ser una muy buena movie.... y una excelente banda sonora :D Saludos bye
 
Última edición:

Nosferatu

Well-known member
Miembro del Staff
Súper Moderador
Miembro VIP
Registro
31 Ago 2012
Mensajes
2.275
Edad
45
Ubicación
Welcome to Hell!!
Muchas gracias por este gran aporte, esta no la he visto que mal y parece ser muy buena y en esta super calidad 1080p...:aplausos::aplausos::aplausos:

Gracias Mostruo R22!!!:aplausos::aplausos::dplgar:
 

Usuarios Que Están Viendo Este Tema (Total: 1, Miembros: 0, Invitados: 1)

Quién Leyó Este Tema (Total Miembros: 4)

Arriba