47 Ronin (2013) 3D H-SBS 1080p BDRip Dual Latino-Inglés [Subt. Esp] (Acción. Drama. Fantástico)

Maestro Revolver

Administrador
Registro
9 Ago 2012
Mensajes
3.157
Reacciones (ptje)
54.925


47Ronin-3D.jpg





FichaTecnica.jpg


TÍTULO ORIGINAL: 47 Ronin
AÑO: 2013
DURACIÓN: 119 min.
PAÍS: USA
DIRECTOR: Carl Erik Rinsch
GUIÓN: Hossein Amini, Chris Morgan
REPARTO: Keanu Reeves, Hiroyuki Sanada, Kou Shibasaki, Cary-Hiroyuki Tagawa, Rinko Kikuchi, Tadanobu Asano, Togo Igawa
PRODUCTORA: Universal Pictures / H2F Entertainment / Stuber Productions
GÉNERO: Acción. Drama. Fantástico | Japón feudal. Samuráis. Siglo XVIII. Venganza. 3-D
imdb-logo.png
: http://www.imdb.com/title/tt1335975/




Sinopsis.jpg


Basada en una leyenda japonesa. Siglo XVIII. Kai (Keanu Reeves) es un paria que se une a Oishi (Hiroyuki Sanada), el jefe de los 47 Ronin. Su objetivo es vengarse del traidor que mató a su señor y los condenó al destierro. Para recuperar el honor perdido, los guerreros emprenden una aventura que les obligará a superar duras pruebas.




Trailer.jpg






Capturas.jpg


1.jpg


2.jpg


3.jpg


5.jpg


6.jpg


7.jpg


8.jpg


La pelicula NO tiene ninguna marca... solo colocamos el nombre de esta web en las capturas




MediaInfo.jpg


Código:
General
Format                                   : Matroska
Format version                           : Version 2
File size                                : 13.9 GiB
Duration                                 : 1h 58mn
Overall bit rate                         : 16.7 Mbps
Movie name                               : www.club-hd.com
Encoded date                             : UTC 2014-03-23 13:46:51
Writing application                      : mkvmerge v5.7.0 ('The Whirlwind') built on Jul  8 2012 20:08:51
Writing library                          : libebml v1.2.3 + libmatroska v1.3.0

Video
ID                                       : 1
Format                                   : AVC
Format/Info                              : Advanced Video Codec
Format profile                           : [email protected]
Format settings, CABAC                   : Yes
Format settings, ReFrames                : 4 frames
Muxing mode                              : Header stripping
Codec ID                                 : V_MPEG4/ISO/AVC
Duration                                 : 1h 58mn
Bit rate                                 : 13.2 Mbps
Width                                    : 1 920 pixels
Height                                   : 1 080 pixels
Display aspect ratio                     : 16:9
Frame rate mode                          : Constant
Frame rate                               : 23.976 fps
Color space                              : YUV
Chroma subsampling                       : 4:2:0
Bit depth                                : 8 bits
Scan type                                : Progressive
Bits/(Pixel*Frame)                       : 0.266
Stream size                              : 10.7 GiB (77%)
Title                                    : www.club-hd.com
Writing library                          : x264 core 140 r2377 1ca7bb9
Language                                 : English
Default                                  : Yes
Forced                                   : No

Audio #1
ID                                       : 2
Format                                   : DTS
Format/Info                              : Digital Theater Systems
Mode                                     : 16
Format settings, Endianness              : Big
Muxing mode                              : Header stripping
Codec ID                                 : A_DTS
Duration                                 : 1h 58mn
Bit rate mode                            : Constant
Bit rate                                 : 768 Kbps
Channel(s)                               : 6 channels
Channel positions                        : Front: L C R, Side: L R, LFE
Sampling rate                            : 48.0 KHz
Bit depth                                : 24 bits
Compression mode                         : Lossy
Stream size                              : 652 MiB (5%)
Title                                    : www.club-hd.com  >>  Latino DTS 5.1
Language                                 : Spanish
Default                                  : Yes
Forced                                   : No

Audio #2
ID                                       : 3
Format                                   : AC-3
Format/Info                              : Audio Coding 3
Mode extension                           : CM (complete main)
Format settings, Endianness              : Big
Muxing mode                              : Header stripping
Codec ID                                 : A_AC3
Duration                                 : 1h 58mn
Bit rate mode                            : Constant
Bit rate                                 : 640 Kbps
Channel(s)                               : 6 channels
Channel positions                        : Front: L C R, Side: L R, LFE
Sampling rate                            : 48.0 KHz
Bit depth                                : 16 bits
Compression mode                         : Lossy
Stream size                              : 544 MiB (4%)
Title                                    : www.club-hd.com  >>  Latino AC3 5.1
Language                                 : Spanish
Default                                  : No
Forced                                   : No

Audio #3
ID                                       : 4
Format                                   : AC-3
Format/Info                              : Audio Coding 3
Mode extension                           : CM (complete main)
Format settings, Endianness              : Big
Muxing mode                              : Header stripping
Codec ID                                 : A_AC3
Duration                                 : 1h 58mn
Bit rate mode                            : Constant
Bit rate                                 : 640 Kbps
Channel(s)                               : 6 channels
Channel positions                        : Front: L C R, Side: L R, LFE
Sampling rate                            : 48.0 KHz
Bit depth                                : 16 bits
Compression mode                         : Lossy
Stream size                              : 544 MiB (4%)
Title                                    : www.club-hd.com  >>  Inglés AC3 5.1
Language                                 : English
Default                                  : No
Forced                                   : No

Audio #4
ID                                       : 5
Format                                   : DTS
Format/Info                              : Digital Theater Systems
Mode                                     : 16
Format settings, Endianness              : Big
Muxing mode                              : Header stripping
Codec ID                                 : A_DTS
Duration                                 : 1h 58mn
Bit rate mode                            : Constant
Bit rate                                 : 1 509 Kbps
Channel(s)                               : 6 channels
Channel positions                        : Front: L C R, Side: L R, LFE
Sampling rate                            : 48.0 KHz
Bit depth                                : 24 bits
Compression mode                         : Lossy
Stream size                              : 1.25 GiB (9%)
Title                                    : www.club-hd.com  >>  Inglés DTS 5.1
Language                                 : English
Default                                  : No
Forced                                   : No

Text #1
ID                                       : 6
Format                                   : VobSub
Muxing mode                              : zlib
Codec ID                                 : S_VOBSUB
Codec ID/Info                            : The same subtitle format used on DVDs
Title                                    : Forzados
Language                                 : Spanish
Default                                  : Yes
Forced                                   : No

Text #2
ID                                       : 7
Format                                   : VobSub
Muxing mode                              : zlib
Codec ID                                 : S_VOBSUB
Codec ID/Info                            : The same subtitle format used on DVDs
Title                                    : Completos
Language                                 : Spanish
Default                                  : No
Forced                                   : No

Menu
00:00:00.000                             : en:00:00:00.000
00:04:27.559                             : en:00:04:27.559
00:11:12.088                             : en:00:11:12.088
00:16:27.820                             : en:00:16:27.820
00:20:11.836                             : en:00:20:11.836
00:26:52.319                             : en:00:26:52.319
00:31:02.944                             : en:00:31:02.944
00:36:10.627                             : en:00:36:10.627
00:43:36.614                             : en:00:43:36.614
00:50:14.511                             : en:00:50:14.511
00:54:59.421                             : en:00:54:59.421
00:59:54.049                             : en:00:59:54.049
01:09:57.735                             : en:01:09:57.735
01:13:59.018                             : en:01:13:59.018
01:19:12.247                             : en:01:19:12.247
01:24:17.386                             : en:01:24:17.386
01:33:00.825                             : en:01:33:00.825
01:38:55.555                             : en:01:38:55.555
01:44:41.609                             : en:01:44:41.609
01:48:38.303                             : en:01:48:38.303




Descarga.jpg



MEGA.jpg

Tenemos TODO el material de Club-HD disponible por Mega, enlaces 100% activos y online hasta la fecha

Llévate tus cuentas Mega PRO III gratis con tu membresía VIP!
Todos los posts vivos con links de Mega.
Todo el material de Club-HD desbloqueado y sin publicidad.

Obtén más información sobre nuestras Membresías VIP


UPLOADED_BANNER.png

Para ver este contenido oculto, debes dar click en el botón"Like", o cualquiera de las otras reacciones:

Me Gusta Me Gusta, Me Encanta Me Encanta, Jaja Jaja, Wow Wow, Triste Triste, Molesto Molesto
 
Última edición por un moderador:
grande revolver en traernos en version 3d a mi lista de descarga y esperar a verla en mi tv saludos master gracias por la peli
 
:LXR: Revolver. Ver esta película en 3D debe ser una joya.
 
Volver