6 Bullets (2012) m-720p Audio Inglés [Subt. Esp] (Acción. Thriller)

Maestro Revolver

Well-known member
Miembro del Staff
Administrador
Registro
9 Ago 2012
Mensajes
3.569
Reacciones
59.471
Puntos
113

Reputation:









TÍTULO ORIGINAL: 6 Bullets
AÑO: 2012
DURACIÓN: 93 min.
PAÍS: USA
DIRECTOR: Ernie Barbarash
GUIÓN: Chad Law, Evan law
REPARTO: Jean-Claude Van Damme, Joe Flanigan, Bianca Bree, Kristopher Van Varenberg, Anna-Louise Plowman, Terese Cilluffo, Louis Dempsey, Charlotte Beaumont
PRODUCTORA: Motion Picture Corporation of America (MPCA) / Rodin Entertainment
GÉNERO: Acción. Thriller | Crimen
http://www.imdb.com/title/tt1975249/





El veterano mercenario Samson Gaul sabe que en el fragor de la batalla cada bala cuenta. Cuando sus acciones dieron como resultado la muerte de víctimas indefensas se retiró pero ahora es la última esperanza de Andrew Fayden un padre desesperado. Fayden sabe luchar pero solo no está preparado para encontrar a su hija en las corruptas calles de un país extranjero. Juntos, ambos guerreros, no se detendrán ante nada para destrozar la red criminal que se aprovecha de los inocentes.
























La pelicula NO tiene ninguna marca... solo colocamos el nombre de esta web en las capturas






Código:
General
Format                           : Matroska
Format version                   : Version 2
File size                        : 2.49 GiB
Duration                         : 1h 55mn
Overall bit rate                 : 3 099 Kbps
Movie name                       : www.club-hd.com
Encoded date                     : UTC 2012-10-07 22:07:22
Writing application              : mkvmerge v4.4.0 ('Die Wiederkehr') built on Oct 31 2010 21:52:48
Writing library                  : libebml v1.0.0 + libmatroska v1.0.0

Video
ID                               : 1
Format                           : AVC
Format/Info                      : Advanced Video Codec
Format profile                   : High@L4.1
Format settings, CABAC           : Yes
Format settings, ReFrames        : 8 frames
Muxing mode                      : Header stripping
Codec ID                         : V_MPEG4/ISO/AVC
Duration                         : 1h 55mn
Bit rate                         : 2 665 Kbps
Width                            : 1 280 pixels
Height                           : 720 pixels
Display aspect ratio             : 16:9
Frame rate                       : 23.976 fps
Color space                      : YUV
Chroma subsampling               : 4:2:0
Bit depth                        : 8 bits
Scan type                        : Progressive
Bits/(Pixel*Frame)               : 0.121
Stream size                      : 2.08 GiB (84%)
Title                            : www.club-hd.com
Writing library                  : x264 core 128 r2216 198a7ea
Language                         : English
Default                          : Yes
Forced                           : No

Audio
ID                               : 2
Format                           : AC-3
Format/Info                      : Audio Coding 3
Mode extension                   : CM (complete main)
Muxing mode                      : Header stripping
Codec ID                         : A_AC3
Duration                         : 1h 55mn
Bit rate mode                    : Constant
Bit rate                         : 448 Kbps
Channel(s)                       : 6 channels
Channel positions                : Front: L C R, Side: L R, LFE
Sampling rate                    : 48.0 KHz
Bit depth                        : 16 bits
Compression mode                 : Lossy
Stream size                      : 369 MiB (14%)
Title                            : www.club-hd.com
Language                         : English
Default                          : Yes
Forced                           : No

Text
ID                               : 3
Format                           : UTF-8
Codec ID                         : S_TEXT/UTF8
Codec ID/Info                    : UTF-8 Plain Text
Language                         : Spanish
Default                          : Yes
Forced                           : No










Enlaces de Mega y Fireload solo disponibles para Miembros VIP

Compra tu Membresía VIP y apoya a Club-HD!

ATENCIÓN! Tenemos TODO el material de Club-HD disponible por Mega y Fireload, enlaces 100% activos y online hasta la fecha

Llévate tus cuentas Mega PRO II gratis con tu membresía VIP!
Todos los posts vivos con links de Mega y Fireload.
Todo el material de Club-HD desbloqueado y sin publicidad.

Click Aquí para más información.




Enlaces de Mega y Fireload solo disponibles para Miembros VIP

Compra tu Membresía VIP y apoya a Club-HD!

ATENCIÓN! Tenemos TODO el material de Club-HD disponible por Mega y Fireload, enlaces 100% activos y online hasta la fecha

Llévate tus cuentas Mega PRO II gratis con tu membresía VIP!
Todos los posts vivos con links de Mega y Fireload.
Todo el material de Club-HD desbloqueado y sin publicidad.

Click Aquí para más información.



Para ver este contenido oculto, debes dar click en una de las siguientes reacciones : Like Like, Love Love, Haha Haha, Wow Wow, Sad Sad, Angry Angry

 
Última edición:

yorsh73

New member
Registro
27 Ago 2012
Mensajes
33
Reacciones
1
Puntos
0
Ubicación
México

Reputation:

Esta movie me la han recomendado mucho, gracias por el aporte... a descargar se ha dicho :aplausos:
 

angumon30

Active member
Registro
27 Ago 2012
Mensajes
1.093
Reacciones
15
Puntos
38
Edad
42

Reputation:

muchas gracias. a ver que tal esta tambien me la recomendario
 

Usuarios Que Están Viendo Este Tema (Total: 1, Miembros: 0, Invitados: 1)

Arriba