71: Into the Fire (2010) 720p BDRip Audio Coreano [Subt. Esp] (Bélico. Drama)

Maestro Revolver

Administrador
Registro
9 Ago 2012
Mensajes
3.157
Reacciones (ptje)
55.209


71-Into-the-Fire.jpg





FichaTecnica.jpg


TÍTULO ORIGINAL: Po-hwa Sok-eu-ro - Pohwasogeuro (Into The Gunfire) (In the Crossfire) (71: Into the Fire)
AÑO: 2010
DURACIÓN: 120 min.
PAÍS: Corea del Sur
DIRECTOR: John H. Lee
GUIÓN: Jeong Tae-won
REPARTO: David Lee McInnis, Sang-woo Kwone, Seung-won Cha, Seung-hyeon Choi, Seung-woo Kim, Christina Cha, Seung-won Jeong, Dong-beom Kim
PRODUCTORA: Taewon Entertainment
GÉNERO: Bélico. Drama | Guerra de Corea. Basado en hechos reales
imdb-logo.png
: http://www.imdb.com/title/tt1587729/




Sinopsis.jpg


John H. Lee (A Moment to Remember) se inspira en esta ocasión en hechos reales para traernos una película bélica en donde un grupo mínimo de soldados surcoreanos y de estudiantes se enfrentaron al ejército norcoreano al final de la guerra de las dos coreas durante 12 horas. Llegará a cines surcoreanos en junio en conmemoracion del 60 aniversario del inicio de la guerra de Corea.




Trailer.jpg






Capturas.jpg


1.jpg


2.jpg


3.jpg


4.jpg


5.jpg


6.jpg


La pelicula NO tiene ninguna marca... solo colocamos el nombre de esta web en las capturas




MediaInfo.jpg


Código:
General
Format                                   : Matroska
Format version                           : Version 2
File size                                : 2.30 GiB
Duration                                 : 2h 2mn
Overall bit rate                         : 2 690 Kbps
Movie name                               : www.club-hd.com
Encoded date                             : UTC 2014-04-05 00:29:35
Writing application                      : mkvmerge v5.7.0 ('The Whirlwind') built on Jul  8 2012 20:08:51
Writing library                          : libebml v1.2.3 + libmatroska v1.3.0

Video
ID                                       : 1
Format                                   : AVC
Format/Info                              : Advanced Video Codec
Format profile                           : [email protected]
Format settings, CABAC                   : Yes
Format settings, ReFrames                : 8 frames
Muxing mode                              : Header stripping
Codec ID                                 : V_MPEG4/ISO/AVC
Duration                                 : 2h 2mn
Bit rate                                 : 2 188 Kbps
Width                                    : 1 280 pixels
Height                                   : 544 pixels
Display aspect ratio                     : 2.35:1
Frame rate mode                          : Constant
Frame rate                               : 23.976 fps
Color space                              : YUV
Chroma subsampling                       : 4:2:0
Bit depth                                : 8 bits
Scan type                                : Progressive
Bits/(Pixel*Frame)                       : 0.131
Stream size                              : 1.87 GiB (81%)
Title                                    : www.club-hd.com
Writing library                          : x264 core 114 r1913 5fd3dce
Language                                 : English
Default                                  : Yes
Forced                                   : No

Audio
ID                                       : 2
Format                                   : AC-3
Format/Info                              : Audio Coding 3
Mode extension                           : CM (complete main)
Format settings, Endianness              : Big
Muxing mode                              : Header stripping
Codec ID                                 : A_AC3
Duration                                 : 2h 2mn
Bit rate mode                            : Constant
Bit rate                                 : 448 Kbps
Channel(s)                               : 6 channels
Channel positions                        : Front: L C R, Side: L R, LFE
Sampling rate                            : 48.0 KHz
Bit depth                                : 16 bits
Compression mode                         : Lossy
Stream size                              : 393 MiB (17%)
Title                                    : www.club-hd.com
Language                                 : Korean
Default                                  : Yes
Forced                                   : No

Text
ID                                       : 3
Format                                   : UTF-8
Codec ID                                 : S_TEXT/UTF8
Codec ID/Info                            : UTF-8 Plain Text
Title                                    : www.club-hd.com
Language                                 : Spanish
Default                                  : Yes
Forced                                   : No




Descarga.jpg



MEGA.jpg

Tenemos TODO el material de Club-HD disponible por Mega, enlaces 100% activos y online hasta la fecha

Llévate tus cuentas Mega PRO III gratis con tu membresía VIP!
Todos los posts vivos con links de Mega.
Todo el material de Club-HD desbloqueado y sin publicidad.

Obtén más información sobre nuestras Membresías VIP



UPLOADED_BANNER.png

Para ver este contenido oculto, debes dar click en el botón"Like", o cualquiera de las otras reacciones:

Me Gusta Me Gusta, Me Encanta Me Encanta, Jaja Jaja, Wow Wow, Triste Triste, Molesto Molesto
 
Última edición por un moderador:
No se si sea por mi....pero ojala haya influenciado un pococ al menos...gracias por el cine oriental....y claro lo genial que es el koreano (al menos en mi pensar) y que cambiaemos un poco el ya quemado cine gringo....hora de meter hindu, arabe, escandinavo, ruso....y si seguir con el tradicional pero irle mezclando gracias
 
Muchas Gracias!!!


- Ustedes les disparan a aquellos, entendieron?!

97f738937acc57d9e7ebb50d8f2108bf_article.jpg


- Disculpe jefe, pero ese es nuestro pelotón!!!.....el de ellos está del otro lado!!!

- Y como no queres que me confunda, sí son todos iguales!!! Será de Dios!!! :plmfc: :D
 
Volver