A Bug's Life (1998) 720p BDRip Dual Latino-Inglés [Subt. Esp] (Animación. Aventura)

Max

Admin
Miembro del Staff
Administrador
Miembro VIP
Registro
8 Ago 2012
Mensajes
6.072
Ubicación
Disco C




Título original: A Bug's Life
Título en Latino: Bichos: una aventura en miniatura
Año: 1998
Duración: 95 min.
País: Estados Unidos
Director: John Lasseter, Andrew Stanton
Guión: Andrew Stanton, Donald McEnery, Bob Shaw
Música: Randy Newman
Fotografía: Sharon Calahan
Reparto: Animation
Productora: Pixar Animation Studios / Walt Disney Pictures
Género: Animación. Aventuras. Comedia. Infantil | Insectos
Premios:
1998: Nominada al Oscar: Mejor banda sonora original (comedia)
1998: Nominada al Globo de Oro: Mejor banda sonora original
1999: Nominada Premios BAFTA: Mejores efectos especiales visuales
1998: 2 Critics' Choice Awards: Mejor largometraje de animación y mejor película fami

http://www.imdb.com/title/tt0120623/






Un grupo de saltamontes asalta cada verano la colonia de hormigas donde vive Flick, para apoderarse de las provisiones que han recogido durante el invierno. Un día, Flick abandona el hormiguero y parte en busca de insectos guerreros que les ayuden a defenderse de los temibles saltamontes, pero, al final, acaba reclutando a una troupe circense.





























Código:
General
Complete name                            : A Bug's Life (1998) 720p BDRip Dual Latino-Inglés [Subt. Esp].mkv
Format                                   : Matroska
Format version                           : Version 2
File size                                : 3.75 GiB
Duration                                 : 1h 34mn
Overall bit rate                         : 5 654 Kbps
Movie name                               : www.club-hd.com --> A Bug's Life (1998) 720p BDRip Dual Latino-Inglés [Subt. Esp]
Encoded date                             : UTC 2013-11-18 02:11:34
Writing application                      : mkvmerge v5.8.0 ('No Sleep / Pillow') built on Sep  2 2012 15:37:04
Writing library                          : libebml v1.2.3 + libmatroska v1.3.0

Video
ID                                       : 1
Format                                   : AVC
Format/Info                              : Advanced Video Codec
Format profile                           : High@L4.0
Format settings, CABAC                   : Yes
Format settings, ReFrames                : 10 frames
Format settings, GOP                     : N=1
Muxing mode                              : Header stripping
Codec ID                                 : V_MPEG4/ISO/AVC
Duration                                 : 1h 34mn
Bit rate                                 : 4 630 Kbps
Width                                    : 1 280 pixels
Height                                   : 544 pixels
Display aspect ratio                     : 2.35:1
Frame rate mode                          : Constant
Frame rate                               : 23.976 fps
Color space                              : YUV
Chroma subsampling                       : 4:2:0
Bit depth                                : 8 bits
Scan type                                : Progressive
Bits/(Pixel*Frame)                       : 0.277
Stream size                              : 2.99 GiB (80%)
Title                                    : A Bug's Life (1998) 720p BDRip Dual Latino-Inglés [Subt. Esp]
Writing library                          : x264 core 67 r1148M 400740b
Encoding settings                        : cabac=1 / ref=10 / deblock=1:-3:-3 / analyse=0x3:0x133 / me=umh / subme=9 / psy_rd=0.9:0.0 / mixed_ref=1 / me_range=16 / chroma_me=1 / trellis=2 / 8x8dct=1 / cqm=0 / deadzone=21,11 / chroma_qp_offset=-2 / threads=6 / nr=0 / decimate=1 / mbaff=0 / bframes=5 / b_pyramid=1 / b_adapt=2 / b_bias=0 / direct=1 / wpredb=1 / keyint=250 / keyint_min=25 / scenecut=40 / rc=2pass / bitrate=4630 / ratetol=1.0 / qcomp=0.60 / qpmin=9 / qpmax=22 / qpstep=4 / cplxblur=20.0 / qblur=0.5 / ip_ratio=1.40 / pb_ratio=1.30 / aq=1:0.70
Language                                 : English
Default                                  : Yes
Forced                                   : No

Audio #1
ID                                       : 2
Format                                   : AC-3
Format/Info                              : Audio Coding 3
Mode extension                           : CM (complete main)
Format settings, Endianness              : Big
Muxing mode                              : Header stripping
Codec ID                                 : A_AC3
Duration                                 : 1h 34mn
Bit rate mode                            : Constant
Bit rate                                 : 384 Kbps
Channel(s)                               : 6 channels
Channel positions                        : Front: L C R, Side: L R, LFE
Sampling rate                            : 48.0 KHz
Bit depth                                : 16 bits
Compression mode                         : Lossy
Stream size                              : 261 MiB (7%)
Title                                    : A Bug's Life (1998) - Español Latino AC3 5.1
Language                                 : Spanish
Default                                  : Yes
Forced                                   : No

Audio #2
ID                                       : 3
Format                                   : AC-3
Format/Info                              : Audio Coding 3
Mode extension                           : CM (complete main)
Format settings, Endianness              : Big
Muxing mode                              : Header stripping
Codec ID                                 : A_AC3
Duration                                 : 1h 34mn
Bit rate mode                            : Constant
Bit rate                                 : 640 Kbps
Channel(s)                               : 6 channels
Channel positions                        : Front: L C R, Side: L R, LFE
Sampling rate                            : 48.0 KHz
Bit depth                                : 16 bits
Compression mode                         : Lossy
Stream size                              : 434 MiB (11%)
Title                                    : A Bug's Life (1998) - Inglés AC3 5.1
Language                                 : English
Default                                  : No
Forced                                   : No

Text
ID                                       : 4
Format                                   : UTF-8
Codec ID                                 : S_TEXT/UTF8
Codec ID/Info                            : UTF-8 Plain Text
Title                                    : A Bug's Life (1998) - Subtítulos Español
Language                                 : Spanish
Default                                  : No
Forced                                   : No








Enlaces de Mega y Google Drive solo disponibles para Miembros VIP

Compra tu Membresía VIP y apoya a Club-HD!

ATENCIÓN! Tenemos TODO el material de Club-HD disponible por Mega y Google Drive, enlaces 100% activos y online hasta la fecha

Llévate tus cuentas Mega PRO III gratis con tu membresía VIP!
Todos los posts vivos con links de Mega y Google Drive.
Todo el material de Club-HD desbloqueado y sin publicidad.

Click Aquí para más información.



Para ver este contenido oculto, debes dar click en una de las siguientes reacciones : Like Like, Love Love, Haha Haha, Wow Wow, Sad Sad, Angry Angry
 
Última edición:

Doctor Jason

New member
Súper Moderador
Registro
1 Sep 2012
Mensajes
2.398
Ubicación
Buenos Aires
Muchisimas Gracias Max!!!


Doctor Jason y Su Data Inútil:

Sabiás que?........En ese mismo año (1998) aparte de "A Bug's Life", se estreno otra película de animación con hormigas llamada "Antz".......interesante, no?Pnsand0


Eyyyyy!!!!..... No se olviden de mí, que soy la Número Uno!!!!!PU3ST0_1



Saludos.bye
 

eljumachi

Well-known member
Miembro VIP
Registro
27 Ago 2012
Mensajes
2.197
Gracias Max este es una pelicula bonita para los niños saludos a la distancias :dplgar:
 

Usuarios Que Están Viendo Este Tema (Total: 1, Miembros: 0, Invitados: 1)

Quién Leyó Este Tema (Total Miembros: 3)

Arriba