A Christmas Carol (2009) 3D H-SBS 1080p BDRip Dual Latino-Inglés [Subt. Esp-Ing] (Animación)

Maestro Revolver

Administrador
Registro
9 Ago 2012
Mensajes
3.157
Reacciones (ptje)
54.925

Aporte Recuperado gracias a nuestro amigo clasaase

A-Christmas-Carol-3D.jpg




FichaTecnica.jpg


TÍTULO ORIGINAL: Disney's A Christmas Carol
AÑO: 2009
DURACIÓN: 95 min.
PAÍS: USA
DIRECTOR: Robert Zemeckis
GUIÓN: Robert Zemeckis (Historia: Charles Dickens)
REPARTO: Jim Carrey, Gary Oldman, Colin Firth, Robin Wright Penn, Cary Elwes, Bob Hoskins, Daryl Sabara, Fionnula Flanagan, Animation
PRODUCTORA: Walt Disney Pictures / ImageMovers
GÉNERO: Animación. Fantástico. Drama. Infantil | Cine familiar. Navidad. 3-D
imdb-logo.png
: http://www.imdb.es/title/tt1067106/




Sinopsis.jpg


Ebenezer Scrooge (Jim Carrey) es un personaje malhumorado y gruñón que trata con desprecio y malos modales a su fiel empleado Bob Cratchit (Gary Oldman) y a su alegre sobrino (Colin Firth). Pero, cuando el espíritu de las Navidades pasadas, presentes y futuras lo arrastra a un viaje, durante el cual descubre verdades que siempre se ha negado a ver, el corazón del viejo avaro se ilumina y se da cuenta de que debe actuar inmediatamente para contrarrestar tantos años de egoísmo y rencor. Adaptación del clásico de Charles Dickens, que usa la misma técnica de animación que "Polar Express" y "Beowulf".




Trailer.jpg






Capturas.jpg


1.jpg


2.jpg


3.jpg


4.jpg


5.jpg


6.jpg


La pelicula NO tiene ninguna marca... solo colocamos el nombre de esta web en las capturas




MediaInfo.jpg


Código:
General
Format                                   : Matroska
Format version                           : Version 2
File size                                : 8.26 GiB
Duration                                 : 1h 35mn
Overall bit rate                         : 12.3 Mbps
Movie name                               : www.club-hd.com
Encoded date                             : UTC 2013-02-11 03:53:55
Writing application                      : mkvmerge v5.7.0 ('The Whirlwind') built on Jul  8 2012 20:08:51
Writing library                          : libebml v1.2.3 + libmatroska v1.3.0

Video
ID                                       : 1
Format                                   : AVC
Format/Info                              : Advanced Video Codec
Format profile                           : [email protected]
Format settings, CABAC                   : Yes
Format settings, ReFrames                : 4 frames
Codec ID                                 : V_MPEG4/ISO/AVC
Duration                                 : 1h 35mn
Bit rate                                 : 10 000 Kbps
Width                                    : 1 920 pixels
Height                                   : 1 080 pixels
Display aspect ratio                     : 16:9
Frame rate mode                          : Constant
Frame rate                               : 23.976 fps
Color space                              : YUV
Chroma subsampling                       : 4:2:0
Bit depth                                : 8 bits
Scan type                                : Progressive
Bits/(Pixel*Frame)                       : 0.201
Stream size                              : 6.40 GiB (77%)
Title                                    : www.club-hd.com
Writing library                          : x264 core 107 r1745 4785e8e
Language                                 : English
Default                                  : Yes
Forced                                   : No

Audio #1
ID                                       : 2
Format                                   : AC-3
Format/Info                              : Audio Coding 3
Mode extension                           : CM (complete main)
Format settings, Endianness              : Big
Codec ID                                 : A_AC3
Duration                                 : 1h 35mn
Bit rate mode                            : Constant
Bit rate                                 : 384 Kbps
Channel(s)                               : 6 channels
Channel positions                        : Front: L C R, Side: L R, LFE
Sampling rate                            : 48.0 KHz
Bit depth                                : 16 bits
Compression mode                         : Lossy
Delay relative to video                  : 24ms
Stream size                              : 263 MiB (3%)
Title                                    : www.club-hd.com  -->  Latino AC3 5.1
Language                                 : Spanish
Default                                  : Yes
Forced                                   : No

Audio #2
ID                                       : 3
Format                                   : AC-3
Format/Info                              : Audio Coding 3
Mode extension                           : CM (complete main)
Format settings, Endianness              : Big
Codec ID                                 : A_AC3
Duration                                 : 1h 35mn
Bit rate mode                            : Constant
Bit rate                                 : 640 Kbps
Channel(s)                               : 6 channels
Channel positions                        : Front: L C R, Side: L R, LFE
Sampling rate                            : 48.0 KHz
Bit depth                                : 16 bits
Compression mode                         : Lossy
Stream size                              : 439 MiB (5%)
Title                                    : www.club-hd.com  >>  Inglés AC3 5.1
Language                                 : English
Default                                  : No
Forced                                   : No

Audio #3
ID                                       : 4
Format                                   : DTS
Format/Info                              : Digital Theater Systems
Mode                                     : 16
Format settings, Endianness              : Big
Codec ID                                 : A_DTS
Duration                                 : 1h 35mn
Bit rate mode                            : Constant
Bit rate                                 : 1 509 Kbps
Channel(s)                               : 6 channels
Channel positions                        : Front: L C R, Side: L R, LFE
Sampling rate                            : 48.0 KHz
Bit depth                                : 24 bits
Compression mode                         : Lossy
Stream size                              : 1.01 GiB (12%)
Title                                    : www.club-hd.com  >>  Inglés DTS 5.1
Language                                 : English
Default                                  : No
Forced                                   : No

Text #1
ID                                       : 5
Format                                   : UTF-8
Codec ID                                 : S_TEXT/UTF8
Codec ID/Info                            : UTF-8 Plain Text
Language                                 : Spanish
Default                                  : No
Forced                                   : No

Text #2
ID                                       : 6
Format                                   : UTF-8
Codec ID                                 : S_TEXT/UTF8
Codec ID/Info                            : UTF-8 Plain Text
Language                                 : English
Default                                  : No
Forced                                   : No

Menu
00:00:00.000                             : en:Video Start
00:05:00.000                             : en:Chapter 1 - 00 Hr 05 Min
00:10:00.000                             : en:Chapter 2 - 00 Hr 10 Min
00:15:00.000                             : en:Chapter 3 - 00 Hr 15 Min
00:20:00.000                             : en:Chapter 4 - 00 Hr 20 Min
00:25:00.000                             : en:Chapter 5 - 00 Hr 25 Min
00:30:00.000                             : en:Chapter 6 - 00 Hr 30 Min
00:35:00.000                             : en:Chapter 7 - 00 Hr 35 Min
00:40:00.000                             : en:Chapter 8 - 00 Hr 40 Min
00:45:00.000                             : en:Chapter 9 - 00 Hr 45 Min
00:50:00.000                             : en:Chapter 10 - 00 Hr 50 Min
00:55:00.000                             : en:Chapter 11 - 00 Hr 55 Min
01:00:00.000                             : en:Chapter 12 - 01 Hr 00 Min
01:05:00.000                             : en:Chapter 13 - 01 Hr 05 Min
01:10:00.000                             : en:Chapter 14 - 01 Hr 10 Min
01:15:00.000                             : en:Chapter 15 - 01 Hr 15 Min
01:20:00.000                             : en:Chapter 16 - 01 Hr 20 Min
01:25:00.000                             : en:Chapter 17 - 01 Hr 25 Min
01:30:00.000                             : en:Chapter 18 - 01 Hr 30 Min


CONTRASEÑA



DESCARGAR

MEGA-BANNER.png


Tenemos TODO el material de Club-HD disponible por Mega, enlaces 100% activos y online hasta la fecha

Llévate tus cuentas Mega PRO III gratis con tu membresía VIP!
Todos los posts vivos con links de Mega.
Todo el material de Club-HD desbloqueado y sin publicidad.

Obtén más información sobre nuestras Membresías VIP


UPLOADED_BANNER.png


Para ver este contenido oculto, debes dar click en el botón"Like", o cualquiera de las otras reacciones:

Me Gusta Me Gusta, Me Encanta Me Encanta, Jaja Jaja, Wow Wow, Triste Triste, Molesto Molesto

google-drive.png


Para ver este contenido oculto, debes dar click en el botón"Like", o cualquiera de las otras reacciones:

Me Gusta Me Gusta, Me Encanta Me Encanta, Jaja Jaja, Wow Wow, Triste Triste, Molesto Molesto
 
Última edición por un moderador:
que buena pelicula me trae muchos recuerdos muchísimas gracias revolver como siempre ustedes traen lo mejor
 
Gracias por este excelente aporte en 3D, Ya pronto comprare mi Led 3D.l0lpfw

1000 Gracias Mister!!!
 
Volver