A Good Day to Die Hard (2013) Extended 1080p BDRip Dual Latino-Inglés [Subt. Esp] (Acción. Thriller)

Maestro Revolver

Administrador
Registro
9 Ago 2012
Mensajes
3.157
Reacciones (ptje)
54.883


D-H-5-1080p.jpg




FichaTecnica.jpg


TÍTULO ORIGINAL: A Good Day to Die Hard - Die Hard 5 (Die Hard V)
AÑO: 2013
DURACIÓN: 97 min.
PAÍS: USA
DIRECTOR: John Moore
GUIÓN: Skip Woods (Personaje: Roderick Thorp)
REPARTO: Bruce Willis, Jai Courtney, Sebastian Koch, Mary Elizabeth Winstead, Julia Snigir, Amaury Nolasco, Megalyn Echikunwoke, Cole Hauser, Anne Vyalitsyna, Yuliya Snigir, Melissa Tang, Pasha D. Lychnikoff, Radivoje Bukvic, Sergei Kolesnikov
PRODUCTORA: 20th Century Fox / Dune Entertainment / Origo Film Group
GÉNERO: Acción. Thriller | Secuela
imdb-logo.png
: http://www.imdb.com/title/tt1606378/




Sinopsis.jpg


El policía John McClane (Bruce Willis) se encuentra por sorpresa en Moscú con su hijo Jack (Jai Courtney) en el lugar y momento equivocados. Con los peores elementos de los bajos fondos rusos tras ellos y luchando contrarreloj para evitar una guerra, los dos McClane descubren que sus métodos opuestos para enfrentarse a las dificultades les pueden venir bien para aunar fuerzas para mantenerse vivos.




Trailer.jpg






Capturas.jpg


1.jpg


2.jpg


3.jpg


4.jpg


5.jpg


6.jpg


La pelicula NO tiene ninguna marca... solo colocamos el nombre de esta web en las capturas




MediaInfo.jpg


Código:
General
Format                                   : Matroska
Format version                           : Version 2
File size                                : 8.41 GiB
Duration                                 : 1h 41mn
Overall bit rate                         : 11.9 Mbps
Movie name                               : www.club-hd.com
Encoded date                             : UTC 2013-05-23 20:47:38
Writing application                      : mkvmerge v5.7.0 ('The Whirlwind') built on Jul  8 2012 20:08:51
Writing library                          : libebml v1.2.3 + libmatroska v1.3.0

Video
ID                                       : 1
Format                                   : AVC
Format/Info                              : Advanced Video Codec
Format profile                           : [email protected]
Format settings, CABAC                   : Yes
Format settings, ReFrames                : 4 frames
Codec ID                                 : V_MPEG4/ISO/AVC
Duration                                 : 1h 41mn
Bit rate                                 : 9 308 Kbps
Width                                    : 1 920 pixels
Height                                   : 1 040 pixels
Display aspect ratio                     : 1.85:1
Frame rate mode                          : Constant
Frame rate                               : 23.976 fps
Color space                              : YUV
Chroma subsampling                       : 4:2:0
Bit depth                                : 8 bits
Scan type                                : Progressive
Bits/(Pixel*Frame)                       : 0.194
Stream size                              : 6.41 GiB (76%)
Title                                    : www.club-hd.com
Writing library                          : x264 core 133 r2334 a3ac64b
Language                                 : English
Default                                  : Yes
Forced                                   : No

Audio #1
ID                                       : 2
Format                                   : AC-3
Format/Info                              : Audio Coding 3
Mode extension                           : CM (complete main)
Format settings, Endianness              : Big
Codec ID                                 : A_AC3
Duration                                 : 1h 41mn
Bit rate mode                            : Constant
Bit rate                                 : 448 Kbps
Channel(s)                               : 6 channels
Channel positions                        : Front: L C R, Side: L R, LFE
Sampling rate                            : 48.0 KHz
Bit depth                                : 16 bits
Compression mode                         : Lossy
Stream size                              : 324 MiB (4%)
Title                                    : www.club-hd.com  >>  Latino AC3
Language                                 : Spanish
Default                                  : Yes
Forced                                   : No

Audio #2
ID                                       : 3
Format                                   : AC-3
Format/Info                              : Audio Coding 3
Mode extension                           : CM (complete main)
Format settings, Endianness              : Big
Codec ID                                 : A_AC3
Duration                                 : 1h 41mn
Bit rate mode                            : Constant
Bit rate                                 : 640 Kbps
Channel(s)                               : 6 channels
Channel positions                        : Front: L C R, Side: L R, LFE
Sampling rate                            : 48.0 KHz
Bit depth                                : 16 bits
Compression mode                         : Lossy
Stream size                              : 463 MiB (5%)
Title                                    : www.club-hd.com  >>  Inglés AC3
Language                                 : English
Default                                  : No
Forced                                   : No

Audio #3
ID                                       : 4
Format                                   : DTS
Format/Info                              : Digital Theater Systems
Format profile                           : ES
Mode                                     : 16
Format settings, Endianness              : Big
Codec ID                                 : A_DTS
Duration                                 : 1h 41mn
Bit rate mode                            : Constant
Bit rate                                 : 1 509 Kbps
Channel(s)                               : 6 channels
Channel positions                        : Front: L C R, Side: L R, LFE
Sampling rate                            : 48.0 KHz
Bit depth                                : 24 bits
Compression mode                         : Lossy
Stream size                              : 1.07 GiB (13%)
Title                                    : www.club-hd.com  >>  Inglés DTS
Language                                 : English
Default                                  : No
Forced                                   : No

Text
ID                                       : 5
Format                                   : UTF-8
Codec ID                                 : S_TEXT/UTF8
Codec ID/Info                            : UTF-8 Plain Text
Language                                 : Spanish
Default                                  : No
Forced                                   : No

Menu
00:00:00.000                             : en:00:00:00.000
00:02:45.999                             : en:00:02:45.999
00:05:02.135                             : en:00:05:02.135
00:09:36.242                             : en:00:09:36.242
00:12:13.900                             : en:00:12:13.900
00:15:25.550                             : en:00:15:25.550
00:18:02.999                             : en:00:18:02.999
00:22:31.350                             : en:00:22:31.350
00:28:31.376                             : en:00:28:31.376
00:32:28.863                             : en:00:32:28.863
00:36:05.914                             : en:00:36:05.914
00:39:53.641                             : en:00:39:53.641
00:42:20.621                             : en:00:42:20.621
00:46:04.720                             : en:00:46:04.720
00:50:30.986                             : en:00:50:30.986
00:53:21.657                             : en:00:53:21.657
00:57:05.547                             : en:00:57:05.547
01:01:46.619                             : en:01:01:46.619
01:05:03.650                             : en:01:05:03.650
01:10:24.053                             : en:01:10:24.053
01:14:04.982                             : en:01:14:04.982
01:17:50.416                             : en:01:17:50.416
01:20:18.021                             : en:01:20:18.021
01:24:05.832                             : en:01:24:05.832
01:26:17.923                             : en:01:26:17.923
01:28:05.488                             : en:01:28:05.488
01:32:37.802                             : en:01:32:37.802
01:35:24.927                             : en:01:35:24.927




Descarga.jpg



MEGA.jpg

Tenemos TODO el material de Club-HD disponible por Mega, enlaces 100% activos y online hasta la fecha

Llévate tus cuentas Mega PRO III gratis con tu membresía VIP!
Todos los posts vivos con links de Mega.
Todo el material de Club-HD desbloqueado y sin publicidad.

Obtén más información sobre nuestras Membresías VIP



1FICHIER-BANNER.png

Tenemos TODO el material de Club-HD disponible por Mega, enlaces 100% activos y online hasta la fecha

Llévate tus cuentas Mega PRO III gratis con tu membresía VIP!
Todos los posts vivos con links de Mega.
Todo el material de Club-HD desbloqueado y sin publicidad.

Obtén más información sobre nuestras Membresías VIP



UPLOADED_BANNER.png

Para ver este contenido oculto, debes dar click en el botón"Like", o cualquiera de las otras reacciones:

Me Gusta Me Gusta, Me Encanta Me Encanta, Jaja Jaja, Wow Wow, Triste Triste, Molesto Molesto
 
Última edición por un moderador:
Re: A Good Day to Die Hard (2013) 1080p BDRip Dual Latino-Inglés [Subt. Esp] (Acción. Thriller)

uuuhhh we ni si mo!!!
 
Re: A Good Day to Die Hard (2013) 1080p BDRip Dual Latino-Inglés [Subt. Esp] (Acción. Thriller)

Bieeeen!!! Esta si la descargo en 1080P... Gracias!!! Desc_g_
 
Re: A Good Day to Die Hard (2013) 1080p BDRip Dual Latino-Inglés [Subt. Esp] (Acción. Thriller)

grax esta see la bajo en 1080 ...
 
Re: A Good Day to Die Hard (2013) 1080p BDRip Dual Latino-Inglés [Subt. Esp] (Acción. Thriller)

gracias
 
Re: A Good Day to Die Hard (2013) 1080p BDRip Dual Latino-Inglés [Subt. Esp] (Acción. Thriller)

Perfectoo R21 este fin de semana sera para ver la saga completa :D eres el mejor siempre trayendo lo mejor de lo mejor y los mejores estrenos
 
Re: A Good Day to Die Hard (2013) 1080p BDRip Dual Latino-Inglés [Subt. Esp] (Acción. Thriller)

gracias por el aporte
 
Re: A Good Day to Die Hard (2013) 1080p BDRip Dual Latino-Inglés [Subt. Esp] (Acción. Thriller)

por fin! la 5a de la saga
 
Re: A Good Day to Die Hard (2013) 1080p BDRip Dual Latino-Inglés [Subt. Esp] (Acción. Thriller)

thnks a ver q tal
 
Re: A Good Day to Die Hard (2013) 1080p BDRip Dual Latino-Inglés [Subt. Esp] (Acción. Thriller)

Gracias por el aporte.
 
Re: A Good Day to Die Hard (2013) 1080p BDRip Dual Latino-Inglés [Subt. Esp] (Acción. Thriller)

muchas gracias por el aporte no lo subiran al servidor http://letitbit.net/
 
Re: A Good Day to Die Hard (2013) 1080p BDRip Dual Latino-Inglés [Subt. Esp] (Acción. Thriller)

Excelente bajando!
 
Re: A Good Day to Die Hard (2013) 1080p BDRip Dual Latino-Inglés [Subt. Esp] (Acción. Thriller)

Desc_g_
 
Re: A Good Day to Die Hard (2013) 1080p BDRip Dual Latino-Inglés [Subt. Esp] (Acción. Thriller)

graciasssssssssss
 
Re: A Good Day to Die Hard (2013) 1080p BDRip Dual Latino-Inglés [Subt. Esp] (Acción. Thriller)

Desc_g_
 
Re: A Good Day to Die Hard (2013) 1080p BDRip Dual Latino-Inglés [Subt. Esp] (Acción. Thriller)

Gracias
 
Re: A Good Day to Die Hard (2013) 1080p BDRip Dual Latino-Inglés [Subt. Esp] (Acción. Thriller)

muchas gracias, se ve buena, haber si esta como las otras Desc_g_
 
Re: A Good Day to Die Hard (2013) 1080p BDRip Dual Latino-Inglés [Subt. Esp] (Acción. Thriller)

Desc_g_
 
Re: A Good Day to Die Hard (2013) 1080p BDRip Dual Latino-Inglés [Subt. Esp] (Acción. Thriller)

Esperando la de 720p gracias ... :)
 
Re: A Good Day to Die Hard (2013) 1080p BDRip Dual Latino-Inglés [Subt. Esp] (Acción. Thriller)

Muy Bien
 
Volver