A Monster In Paris (2011) 3D H-SBS 1080p BDRip Dual Latino-Ingles [Subt. Esp] (Animación)

Maestro Revolver

Well-known member
Miembro del Staff
Administrador
Registro
9 Ago 2012
Mensajes
3.569
Reacciones
59.471
Puntos
113

Reputation:

Aporte Recuperado gracias a nuestro amigo clasaase







TÍTULO ORIGINAL: Un monstre à Paris (A Monster In Paris)
AÑO: 2012
DURACIÓN: 82 min.
PAÍS: Francia
DIRECTOR: Bibo Bergeron
GUIÓN: Bibo Bergeron, Stéphane Kazandjian
REPARTO: Animation
PRODUCTORA: Bibo Films / Europa Corp. / Walking The Dog
GÉNERO: Animación. Fantástico. Comedia. Musical | Años 1910-1919. Monstruos. 3-D
: http://www.imdb.com/title/tt0961097/

PREMIOS: 2011: Premios Cesar: Nominada a Mejor película de animación y mejor banda sonora
2012: Festival de Gijón: Mención honorífica (sección Animaficx)






Hacia 1910, en París, una extraña criatura tiene aterrorizada a la población. Emilio y Raúl, dos hombres que no tienen nada en común y no muy predispuestos a la aventura, emprenden la caza del monstruo. Gracias a esta misión lograrán encontrarse a sí mismos, descubrir el amor y romper con toda clase de prejuicios, lo que les lleva a albergar dudas sobre la verdadera naturaleza de ese extraño ser.
























La pelicula NO tiene ninguna marca... solo colocamos el nombre de esta web en las capturas






Código:
General
Format                                   : Matroska
Format version                           : Version 2
File size                                : 9.18 GiB
Duration                                 : 1h 29mn
Overall bit rate                         : 14.6 Mbps
Movie name                               : www.club-hd.com
Encoded date                             : UTC 2013-03-01 23:55:27
Writing application                      : mkvmerge v5.7.0 ('The Whirlwind') built on Jul  8 2012 20:08:51
Writing library                          : libebml v1.2.3 + libmatroska v1.3.0

Video
ID                                       : 1
Format                                   : AVC
Format/Info                              : Advanced Video Codec
Format profile                           : High@L4.1
Format settings, CABAC                   : Yes
Format settings, ReFrames                : 4 frames
Codec ID                                 : V_MPEG4/ISO/AVC
Duration                                 : 1h 29mn
Bit rate                                 : 12.0 Mbps
Width                                    : 1 920 pixels
Height                                   : 1 080 pixels
Display aspect ratio                     : 16:9
Frame rate mode                          : Constant
Frame rate                               : 23.976 fps
Color space                              : YUV
Chroma subsampling                       : 4:2:0
Bit depth                                : 8 bits
Scan type                                : Progressive
Bits/(Pixel*Frame)                       : 0.241
Stream size                              : 7.36 GiB (80%)
Title                                    : www.club-hd.com
Writing library                          : x264 core 120 r2164 da19765
Language                                 : English
Default                                  : Yes
Forced                                   : No

Audio #1
ID                                       : 2
Format                                   : AC-3
Format/Info                              : Audio Coding 3
Mode extension                           : CM (complete main)
Format settings, Endianness              : Big
Codec ID                                 : A_AC3
Duration                                 : 1h 29mn
Bit rate mode                            : Constant
Bit rate                                 : 448 Kbps
Channel(s)                               : 6 channels
Channel positions                        : Front: L C R, Side: L R, LFE
Sampling rate                            : 48.0 KHz
Bit depth                                : 16 bits
Compression mode                         : Lossy
Delay relative to video                  : 3s 0ms
Stream size                              : 288 MiB (3%)
Title                                    : www.club-hd.com  >>  Latino AC3 5.1 Por Club-HD
Language                                 : Spanish
Default                                  : Yes
Forced                                   : No

Audio #2
ID                                       : 3
Format                                   : AC-3
Format/Info                              : Audio Coding 3
Mode extension                           : CM (complete main)
Format settings, Endianness              : Big
Codec ID                                 : A_AC3
Duration                                 : 1h 29mn
Bit rate mode                            : Constant
Bit rate                                 : 640 Kbps
Channel(s)                               : 6 channels
Channel positions                        : Front: L C R, Side: L R, LFE
Sampling rate                            : 48.0 KHz
Bit depth                                : 16 bits
Compression mode                         : Lossy
Stream size                              : 412 MiB (4%)
Title                                    : www.club-hd.com  >>  Inglés AC3 5.1
Language                                 : English
Default                                  : No
Forced                                   : No

Audio #3
ID                                       : 4
Format                                   : DTS
Format/Info                              : Digital Theater Systems
Mode                                     : 16
Format settings, Endianness              : Big
Codec ID                                 : A_DTS
Duration                                 : 1h 29mn
Bit rate mode                            : Constant
Bit rate                                 : 1 509 Kbps
Channel(s)                               : 6 channels
Channel positions                        : Front: L C R, Side: L R, LFE
Sampling rate                            : 48.0 KHz
Bit depth                                : 24 bits
Compression mode                         : Lossy
Delay relative to video                  : 11ms
Stream size                              : 971 MiB (10%)
Title                                    : www.club-hd.com  >>  Inglés DTS 5.1
Language                                 : English
Default                                  : No
Forced                                   : No

Text
ID                                       : 5
Format                                   : UTF-8
Codec ID                                 : S_TEXT/UTF8
Codec ID/Info                            : UTF-8 Plain Text
Language                                 : Spanish
Default                                  : No
Forced                                   : No




Nota

Este audio Latino fue convertido a 5.1 (Único en la Web) por este humilde servidor , para todos los amantes de los 6 canales. Que lo disfruten :dplgar:














Todos los links son Intercambiables!



Enlaces de Mega y Fireload solo disponibles para Miembros VIP

Compra tu Membresía VIP y apoya a Club-HD!

ATENCIÓN! Tenemos TODO el material de Club-HD disponible por Mega y Fireload, enlaces 100% activos y online hasta la fecha

Llévate tus cuentas Mega PRO II gratis con tu membresía VIP!
Todos los posts vivos con links de Mega y Fireload.
Todo el material de Club-HD desbloqueado y sin publicidad.

Click Aquí para más información.


Para ver este contenido oculto, debes dar click en una de las siguientes reacciones : Like Like, Love Love, Haha Haha, Wow Wow, Sad Sad, Angry Angry


Para ver este contenido oculto, debes dar click en una de las siguientes reacciones : Like Like, Love Love, Haha Haha, Wow Wow, Sad Sad, Angry Angry



Para ver este contenido oculto, debes dar click en una de las siguientes reacciones : Like Like, Love Love, Haha Haha, Wow Wow, Sad Sad, Angry Angry
 
Última edición por un moderador:

eljumachi

Well-known member
Miembro VIP
Registro
27 Ago 2012
Mensajes
2.178
Reacciones
340
Puntos
83

Reputation:

MAS 3D Me voy a volver loco mi computadora va a reventar trabajando este fin de semana, no me lo imaginaba en 3D gracias R21 siga dándole trabajo a mi computadora que si se quema rompo el cochinito para comprar otro mucho saludos.
 

sharklui

Well-known member
Miembro VIP
Registro
28 Ago 2012
Mensajes
1.026
Reacciones
271
Puntos
83
Ubicación
The Matrix

Reputation:

:aplausos:

No me imaginaba que tan rapido la subirias en 3D, sos grande :LXR:

Muchas gracias !!! :aplausos:
 

Usuarios Que Están Viendo Este Tema (Total: 1, Miembros: 0, Invitados: 1)

Arriba