A Monster In Paris (2011) 720p BDRip Dual Latino-Ingles [Subt. Esp] (Animación)

Maestro Revolver

Well-known member
Miembro del Staff
Administrador
Registro
9 Ago 2012
Mensajes
3.567








TÍTULO ORIGINAL: Un monstre à Paris (A Monster In Paris)
AÑO: 2012
DURACIÓN: 82 min.
PAÍS: Francia
DIRECTOR: Bibo Bergeron
GUIÓN: Bibo Bergeron, Stéphane Kazandjian
REPARTO: Animation
PRODUCTORA: Bibo Films / Europa Corp. / Walking The Dog
GÉNERO: Animación. Fantástico. Comedia. Musical | Años 1910-1919. Monstruos. 3-D
: http://www.imdb.com/title/tt0961097/

PREMIOS: 2011: Premios Cesar: Nominada a Mejor película de animación y mejor banda sonora
2012: Festival de Gijón: Mención honorífica (sección Animaficx)






Hacia 1910, en París, una extraña criatura tiene aterrorizada a la población. Emilio y Raúl, dos hombres que no tienen nada en común y no muy predispuestos a la aventura, emprenden la caza del monstruo. Gracias a esta misión lograrán encontrarse a sí mismos, descubrir el amor y romper con toda clase de prejuicios, lo que les lleva a albergar dudas sobre la verdadera naturaleza de ese extraño ser.
























La pelicula NO tiene ninguna marca... solo colocamos el nombre de esta web en las capturas






Código:
General
Format                                   : Matroska
Format version                           : Version 2
File size                                : 3.99 GiB
Duration                                 : 1h 29mn
Overall bit rate                         : 6 350 Kbps
Movie name                               : www.club-hd.com
Encoded date                             : UTC 2013-03-01 21:23:09
Writing application                      : mkvmerge v5.7.0 ('The Whirlwind') built on Jul  8 2012 20:08:51
Writing library                          : libebml v1.2.3 + libmatroska v1.3.0

Video
ID                                       : 1
Format                                   : AVC
Format/Info                              : Advanced Video Codec
Format profile                           : High@L3.1
Format settings, CABAC                   : Yes
Format settings, ReFrames                : 5 frames
Codec ID                                 : V_MPEG4/ISO/AVC
Duration                                 : 1h 29mn
Bit rate                                 : 5 452 Kbps
Width                                    : 1 280 pixels
Height                                   : 688 pixels
Display aspect ratio                     : 1.85:1
Frame rate mode                          : Constant
Frame rate                               : 23.976 fps
Color space                              : YUV
Chroma subsampling                       : 4:2:0
Bit depth                                : 8 bits
Scan type                                : Progressive
Bits/(Pixel*Frame)                       : 0.258
Stream size                              : 3.35 GiB (84%)
Title                                    : www.club-hd.com
Writing library                          : x264 core 125 r2200 999b753
Language                                 : English
Default                                  : Yes
Forced                                   : No

Audio #1
ID                                       : 2
Format                                   : AC-3
Format/Info                              : Audio Coding 3
Mode extension                           : CM (complete main)
Format settings, Endianness              : Big
Codec ID                                 : A_AC3
Duration                                 : 1h 29mn
Bit rate mode                            : Constant
Bit rate                                 : 448 Kbps
Channel(s)                               : 6 channels
Channel positions                        : Front: L C R, Side: L R, LFE
Sampling rate                            : 48.0 KHz
Bit depth                                : 16 bits
Compression mode                         : Lossy
Stream size                              : 288 MiB (7%)
Title                                    : www.club-hd.com  >>  Latino
Language                                 : Spanish
Default                                  : Yes
Forced                                   : No

Audio #2
ID                                       : 3
Format                                   : AC-3
Format/Info                              : Audio Coding 3
Mode extension                           : CM (complete main)
Format settings, Endianness              : Big
Codec ID                                 : A_AC3
Duration                                 : 1h 29mn
Bit rate mode                            : Constant
Bit rate                                 : 448 Kbps
Channel(s)                               : 6 channels
Channel positions                        : Front: L C R, Side: L R, LFE
Sampling rate                            : 48.0 KHz
Bit depth                                : 16 bits
Compression mode                         : Lossy
Stream size                              : 288 MiB (7%)
Title                                    : www.club-hd.com  >>  Inglés
Language                                 : English
Default                                  : No
Forced                                   : No

Text
ID                                       : 4
Format                                   : UTF-8
Codec ID                                 : S_TEXT/UTF8
Codec ID/Info                            : UTF-8 Plain Text
Language                                 : Spanish
Default                                  : No
Forced                                   : No




Nota

Este audio Latino fue convertido a 5.1 (Único en la Web) por este humilde servidor , para todos los amantes de los 6 canales. Que lo disfruten :dplgar:










Enlaces de Mega y Google Drive solo disponibles para Miembros VIP

Compra tu Membresía VIP y apoya a Club-HD!

ATENCIÓN! Tenemos TODO el material de Club-HD disponible por Mega y Google Drive, enlaces 100% activos y online hasta la fecha

Llévate tus cuentas Mega PRO III gratis con tu membresía VIP!
Todos los posts vivos con links de Mega y Google Drive.
Todo el material de Club-HD desbloqueado y sin publicidad.

Click Aquí para más información.




Enlaces de Mega y Google Drive solo disponibles para Miembros VIP

Compra tu Membresía VIP y apoya a Club-HD!

ATENCIÓN! Tenemos TODO el material de Club-HD disponible por Mega y Google Drive, enlaces 100% activos y online hasta la fecha

Llévate tus cuentas Mega PRO III gratis con tu membresía VIP!
Todos los posts vivos con links de Mega y Google Drive.
Todo el material de Club-HD desbloqueado y sin publicidad.

Click Aquí para más información.



Para ver este contenido oculto, debes dar click en una de las siguientes reacciones : Like Like, Love Love, Haha Haha, Wow Wow, Sad Sad, Angry Angry
 
Última edición por un moderador:

sharklui

Well-known member
Miembro VIP
Registro
28 Ago 2012
Mensajes
1.026
Ubicación
The Matrix
:dplgar:

Llegue justo a tiempo para primera respuesta :D

Gracias, mil Gracias por tus grandes aportes, Revolver Forever :dplgar:
 

snak32

Member
Registro
29 Ago 2012
Mensajes
318
Edad
39
ke tal amigo gracias por tan grandes peluculas una peticion podrias conseguir 1408 creo ke es digan de estar en tus aportes en hd
 

sharklui

Well-known member
Miembro VIP
Registro
28 Ago 2012
Mensajes
1.026
Ubicación
The Matrix
S_T1

Mientras se me desbloqueaba el navegador se me adelantaron, para la proxima :dplgar:
 

Claudia

New member
Súper Moderador
Registro
28 Ago 2012
Mensajes
2.282
Edad
49
Ubicación
EN MI MUNDO REAL...
Pl4yb0yHABLANDO DE EXCELENCIA AQUI EN SU MAXIMA EXPRESION, GRACIAS MASTER...POR DARNOS LO MEJOR SIEMPRE!!!!!!!!!!
 

DarkMaul

Member
Registro
27 Ago 2012
Mensajes
120
buenisimo no entiendo como lo conviertes..pork lo estuve buscando por todo internet pero no lo encuentro..me la llevo..gracias
 

Usuarios Que Están Viendo Este Tema (Total: 1, Miembros: 0, Invitados: 1)

Quién Leyó Este Tema (Total Miembros: 3)

Arriba