A Royal Affair (2012) m-720p BDRip Audio Danés [Subt. Esp] (Drama. Romance)

Max

Admin
Miembro del Staff
Administrador
Registro
8 Ago 2012
Mensajes
5.583
Reacciones
23.722
Puntos
113
Ubicación
Disco C

Reputation:





TÍTULO ORIGINAL: En Kongelig Affære (Die Königin und der Leibarzt)
AÑO: 2012
DURACIÓN: 137 min.
PAÍS: Dinamarca
DIRECTOR: Nikolaj Arcel
GUIÓN: Nikolaj Arcel, Rasmus Heisterberg, Lars von Trier
MÚSICA: Gabriel Yared, Cyrille Aufort
FOTOGRAFÍA: Rasmus Videbæk
REPARTO: Mads Mikkelsen, Alicia Vikander, Mikkel Boe Følsgaard, Trine Dyrholm, David Dencik
PRODUCTORA: Zentropa Entertainments
PREMIOS:
2012: Festival de Berlín: 2 Osos de Plata: Mejor actor (Mikkel Boe Følsgaard) y guión
2012: Festival de Toronto: Nominada al Premio del Público (Mejor película)
2012: Festival de Sevilla: Sección oficial largometrajes a concurso
2012: Premios del Cine Europeo: 2 nominaciones: mejor música y diseño de producción
GÉNERO: Drama. Romance | Drama de época. Histórico

http://www.imdb.com/title/tt1276419/






Las cortes del XVIII nunca fueron lugares recomendables. Para la joven Carolina Matilde (Alicia Vikander), casada aún adolescente con el rey de Christian VII, es un reto vivir con un marido ciclotímico que propone al Consejo de Estado medidas como que su perro sea nombrado miembro honorario, o que se hagan circular carruajes vacíos por la noche de Copenhague para recoger a los borrachos que no encuentran el camino a casa. Carolina, así, se rinde a los encantos del médico personal del rey, el intelectual progresista Johann Friedrich Struensee (Mads Mikkelsen). Struensee se verá dividido entre su lealtad al rey, su amor y su oportunidad de convertir una Dinamarca aún medieval en un país ilustrado.



























Código:
General
Complete name                            : A Royal Affair (2012) m-720p BDRip Audio Danés [Subt. Esp].mkv
Format                                   : Matroska
Format version                           : Version 2
File size                                : 3.10 GiB
Duration                                 : 2h 17mn
Overall bit rate                         : 3 230 Kbps
Movie name                               : www.club-hd.com --> A Royal Affair (2012) m-720p BDRip Audio Danés [Subt. Esp]
Encoded date                             : UTC 2012-11-24 15:46:40
Writing application                      : mkvmerge v5.8.0 ('No Sleep / Pillow') built on Sep  2 2012 15:37:04
Writing library                          : libebml v1.2.3 + libmatroska v1.3.0

Video
ID                                       : 1
Format                                   : AVC
Format/Info                              : Advanced Video Codec
Format profile                           : High@L4.1
Format settings, CABAC                   : Yes
Format settings, ReFrames                : 9 frames
Codec ID                                 : V_MPEG4/ISO/AVC
Duration                                 : 2h 17mn
Bit rate                                 : 2 780 Kbps
Width                                    : 1 280 pixels
Height                                   : 544 pixels
Display aspect ratio                     : 2.35:1
Frame rate mode                          : Constant
Frame rate                               : 24.000 fps
Color space                              : YUV
Chroma subsampling                       : 4:2:0
Bit depth                                : 8 bits
Scan type                                : Progressive
Bits/(Pixel*Frame)                       : 0.166
Stream size                              : 2.61 GiB (84%)
Title                                    : www.club-hd.com --> A Royal Affair (2012) m-720p BDRip Audio Danés [Subt. Esp]
Writing library                          : x264 core 128 r2216 198a7ea
Encoding settings                        : cabac=1 / ref=9 / deblock=1:-3:-3 / analyse=0x3:0x113 / me=umh / subme=10 / psy=1 / psy_rd=1.10:0.00 / mixed_ref=1 / me_range=24 / chroma_me=1 / trellis=2 / 8x8dct=1 / cqm=0 / deadzone=21,11 / fast_pskip=1 / chroma_qp_offset=-2 / threads=12 / lookahead_threads=2 / sliced_threads=0 / nr=0 / decimate=1 / interlaced=0 / bluray_compat=0 / constrained_intra=0 / bframes=6 / b_pyramid=2 / b_adapt=1 / b_bias=0 / direct=1 / weightb=1 / open_gop=0 / weightp=2 / keyint=250 / keyint_min=24 / scenecut=40 / intra_refresh=0 / rc=2pass / mbtree=0 / bitrate=2780 / ratetol=1.0 / qcomp=0.60 / qpmin=0 / qpmax=69 / qpstep=4 / cplxblur=20.0 / qblur=0.5 / ip_ratio=1.40 / pb_ratio=1.30 / aq=1:0.80
Language                                 : Danish
Default                                  : Yes
Forced                                   : No

Audio
ID                                       : 2
Format                                   : AC-3
Format/Info                              : Audio Coding 3
Mode extension                           : CM (complete main)
Format settings, Endianness              : Big
Codec ID                                 : A_AC3
Duration                                 : 2h 17mn
Bit rate mode                            : Constant
Bit rate                                 : 448 Kbps
Channel(s)                               : 6 channels
Channel positions                        : Front: L C R, Side: L R, LFE
Sampling rate                            : 48.0 KHz
Bit depth                                : 16 bits
Compression mode                         : Lossy
Stream size                              : 441 MiB (14%)
Title                                    : A Royal Affair (2012) - Danés AC3 5.1
Language                                 : Danish
Default                                  : Yes
Forced                                   : No

Text
ID                                       : 3
Format                                   : UTF-8
Codec ID                                 : S_TEXT/UTF8
Codec ID/Info                            : UTF-8 Plain Text
Title                                    : Subtítulos Español
Language                                 : Spanish
Default                                  : Yes
Forced                                   : No

Menu
00:00:00.000                             : en:Chapter 1
00:09:20.667                             : en:Chapter 2
00:23:29.292                             : en:Chapter 3
00:34:58.583                             : en:Chapter 4
00:47:47.042                             : en:Chapter 5
01:03:09.625                             : en:Chapter 6
01:15:04.833                             : en:Chapter 7
01:27:12.958                             : en:Chapter 8
01:40:44.667                             : en:Chapter 9
01:52:48.500                             : en:Chapter 10
02:02:58.083                             : en:Chapter 11
02:13:53.792                             : en:Chapter 12




Muy importante! Al ser una película hablada en danés, todo el film se encuentra subtitulado en Inglés, y como esta peli trae subtítulos en español Neutro, se mesclan ambos Subs, el Ingles junto con el español, haciendo que no se entienda nada de lo estamos leyendo.

La solucón: Si usan el reproductor VLC Media Player (el cual recomendamos fuertemente en Club-HD), sigan los siguientes pasos para arreglar este inconveniente:

Primero le dan play a la película >> Click en el botón secundario del Mouse >> Apunten en "Herramientas" >> Y elijan del Menu que les aparecerá "Preferencias" >> Luego eligen el cuarto icono que es "Subtítulos y OSD" >> Y entre todas las opciones que les va a aparecer, sólo le cambian donde dice "Color de texto predeterminado" lo ponen en color Amarillo. Y la otra cosa que deben cambiar es la que dice "Anadir un fondo" aqui sólo marcan la casilla que está vacia. Terminan la operación dandole click en "Guardar"

Y eso es todo.
Pl4yb0y







Todos los links son Intercambiables!





Enlaces de Mega y Fireload solo disponibles para Miembros VIP

Compra tu Membresía VIP y apoya a Club-HD!

ATENCIÓN! Tenemos TODO el material de Club-HD disponible por Mega y Fireload, enlaces 100% activos y online hasta la fecha

Llévate tus cuentas Mega PRO II gratis con tu membresía VIP!
Todos los posts vivos con links de Mega y Fireload.
Todo el material de Club-HD desbloqueado y sin publicidad.

Click Aquí para más información.



Enlaces de Mega y Fireload solo disponibles para Miembros VIP

Compra tu Membresía VIP y apoya a Club-HD!

ATENCIÓN! Tenemos TODO el material de Club-HD disponible por Mega y Fireload, enlaces 100% activos y online hasta la fecha

Llévate tus cuentas Mega PRO II gratis con tu membresía VIP!
Todos los posts vivos con links de Mega y Fireload.
Todo el material de Club-HD desbloqueado y sin publicidad.

Click Aquí para más información.





Para ver este contenido oculto, debes dar click en una de las siguientes reacciones : Like Like, Love Love, Haha Haha, Wow Wow, Sad Sad, Angry Angry
 
Última edición por un moderador:

juan_fornaris

New member
Registro
28 Ago 2012
Mensajes
144
Reacciones
57
Puntos
0

Reputation:

Ojalá haya un posteado en 1080p para esta impecable producción danesa. Excelente Max
 

ccancun

New member
Registro
29 Ago 2012
Mensajes
90
Reacciones
4
Puntos
0
Edad
59

Reputation:

Muchas gracias, se ve excelente, saludos a todos
 

Usuarios Que Están Viendo Este Tema (Total: 1, Miembros: 0, Invitados: 1)

Arriba