• Este aviso va dirigido a todos los nuevos miembros recien llegados a Club-HD. Les recordamos que la direccion URL de este sitio web es , asi que deben acceder únicamente por esta URL. Sean todos bienvenidos al Club!

A Score To Settle (2019) 1080p BDRip Dual Latino-Inglés [Sub.Lat-Ing] (Acción. Thriller. Drama, Venganza)

Tk

K.D.S 😳
Diseñador
Uploader
Miembro VIP
Registrado
1 May 2017
Mensajes
379
Puntos de reacción
4,658
Puntos
93
Sitio web
www.flickr.com



Otros Títulos : Ajuste De Cuentas / Froide Vengeance


Un antiguo sicario de la mafia (Nicholas Cage) busca vengarse de los capos que provocaron su injusto encarcelamiento 22 años atrás. Lo único que le hace replantearse ejecutar sus violentos planes es la nueva relación que mantiene con su querido hijo.















Código:
Unique ID                                : 2264319462843319886673451843285358690 (0x1B417919E627ADCCD5647F97CD31862)
Complete name                            : A Score To Settle (2019) 1080p BDRip Dual Latino-Inglés [Sub.Lat-Ing].mkv
Format                                   : Matroska
Format version                           : Version 4
File size                                : 14.0 GiB
Duration                                 : 1 h 43 min
Overall bit rate mode                    : Variable
Overall bit rate                         : 19.3 Mb/s
Movie name                               : A Score To Settle (2019) 1080p BDRip Dual Latino-Inglés [www.club-hd.com]
Encoded date                             : UTC 2020-06-29 23:13:57
Writing application                      : mkvmerge v46.0.0 ('No Deeper Escape') 64-bit
Writing library                          : libebml v1.3.10 + libmatroska v1.5.2

Video
ID                                       : 1
Format                                   : AVC
Format/Info                              : Advanced Video Codec
Format profile                           : High@L4.1
Format settings                          : CABAC / 5 Ref Frames
Format settings, CABAC                   : Yes
Format settings, Reference frames        : 5 frames
Codec ID                                 : V_MPEG4/ISO/AVC
Duration                                 : 1 h 43 min
Bit rate                                 : 15.4 Mb/s
Width                                    : 1 920 pixels
Height                                   : 808 pixels
Display aspect ratio                     : 2.40:1
Frame rate mode                          : Constant
Frame rate                               : 23.976 (24000/1001) FPS
Color space                              : YUV
Chroma subsampling                       : 4:2:0
Bit depth                                : 8 bits
Scan type                                : Progressive
Bits/(Pixel*Frame)                       : 0.414
Stream size                              : 11.2 GiB (80%)
Title                                    : A Score To Settle (2019) 1080p BDRip Dual Latino-Inglés [Sub.Lat-Ing]
Writing library                          : x264 core 146 r2538 121396c
Encoding settings                        : cabac=1 / ref=5 / deblock=1:-3:-3 / analyse=0x3:0x133 / me=umh / subme=10 / psy=1 / psy_rd=1.00:0.00 / mixed_ref=1 / me_range=32 / chroma_me=1 / trellis=2 / 8x8dct=1 / cqm=0 / deadzone=21,11 / fast_pskip=0 / chroma_qp_offset=-2 / threads=12 / lookahead_threads=2 / sliced_threads=0 / nr=0 / decimate=0 / interlaced=0 / bluray_compat=0 / constrained_intra=0 / bframes=8 / b_pyramid=2 / b_adapt=2 / b_bias=0 / direct=3 / weightb=1 / open_gop=0 / weightp=2 / keyint=250 / keyint_min=23 / scenecut=40 / intra_refresh=0 / rc=crf / mbtree=0 / crf=15.7 / qcomp=0.60 / qpmin=0 / qpmax=69 / qpstep=4 / ip_ratio=1.35 / pb_ratio=1.25 / aq=3:0.80 / zones=265,462,b=1.1/701,817,b=1.1/140410,149195,b=0.6
Language                                 : English
Default                                  : Yes
Forced                                   : No

Audio #1
ID                                       : 2
Format                                   : AC-3
Format/Info                              : Audio Coding 3
Commercial name                          : Dolby Digital
Codec ID                                 : A_AC3
Duration                                 : 1 h 43 min
Bit rate mode                            : Constant
Bit rate                                 : 256 kb/s
Channel(s)                               : 2 channels
Channel layout                           : L R
Sampling rate                            : 48.0 kHz
Frame rate                               : 31.250 FPS (1536 SPF)
Compression mode                         : Lossy
Delay relative to video                  : 29 ms
Stream size                              : 190 MiB (1%)
Title                                    : Latino 2.0 [iTunes]
Language                                 : Spanish
Service kind                             : Complete Main
Default                                  : Yes
Forced                                   : No

Audio #2
ID                                       : 3
Format                                   : DTS XLL
Format/Info                              : Digital Theater Systems
Commercial name                          : DTS-HD Master Audio
Codec ID                                 : A_DTS
Duration                                 : 1 h 43 min
Bit rate mode                            : Variable
Bit rate                                 : 3 645 kb/s
Channel(s)                               : 6 channels
Channel layout                           : C L R Ls Rs LFE
Sampling rate                            : 48.0 kHz
Frame rate                               : 93.750 FPS (512 SPF)
Bit depth                                : 24 bits
Compression mode                         : Lossless
Stream size                              : 2.64 GiB (19%)
Title                                    : Inglés 5.1 [BluRay]
Default                                  : No
Forced                                   : No

Text #1
ID                                       : 4
Format                                   : PGS
Muxing mode                              : zlib
Codec ID                                 : S_HDMV/PGS
Codec ID/Info                            : Picture based subtitle format used on BDs/HD-DVDs
Duration                                 : 1 h 37 min
Bit rate                                 : 20.4 kb/s
Count of elements                        : 2582
Stream size                              : 14.2 MiB (0%)
Title                                    : Completos [PGS]
Language                                 : Spanish
Default                                  : No
Forced                                   : No

Text #2
ID                                       : 5
Format                                   : PGS
Muxing mode                              : zlib
Codec ID                                 : S_HDMV/PGS
Codec ID/Info                            : Picture based subtitle format used on BDs/HD-DVDs
Duration                                 : 1 h 41 min
Bit rate                                 : 25.7 kb/s
Count of elements                        : 3304
Stream size                              : 18.6 MiB (0%)
Title                                    : Completos [PGS]
Language                                 : English
Default                                  : No
Forced                                   : No

Text #3
ID                                       : 6
Format                                   : UTF-8
Codec ID                                 : S_TEXT/UTF8
Codec ID/Info                            : UTF-8 Plain Text
Duration                                 : 1 h 35 min
Bit rate                                 : 64 b/s
Count of elements                        : 1319
Stream size                              : 45.0 KiB (0%)
Title                                    : Completos [SRT]
Language                                 : Spanish
Default                                  : No
Forced                                   : No

Text #4
ID                                       : 7
Format                                   : UTF-8
Codec ID                                 : S_TEXT/UTF8
Codec ID/Info                            : UTF-8 Plain Text
Duration                                 : 1 h 1 min
Bit rate                                 : 0 b/s
Count of elements                        : 4
Stream size                              : 83.0 Bytes (0%)
Title                                    : Forzados [SRT]
Language                                 : Spanish
Default                                  : No
Forced                                   : Yes

Text #5
ID                                       : 8
Format                                   : UTF-8
Codec ID                                 : S_TEXT/UTF8
Codec ID/Info                            : UTF-8 Plain Text
Duration                                 : 1 h 41 min
Bit rate                                 : 59 b/s
Count of elements                        : 1598
Stream size                              : 43.8 KiB (0%)
Title                                    : Completos [SRT]
Language                                 : English
Default                                  : No
Forced                                   : No

Menu
00:00:00.000                             : :Chapter 01
00:09:00.915                             : :Chapter 02
00:21:13.647                             : :Chapter 03
00:32:18.103                             : :Chapter 04
00:49:04.275                             : :Chapter 05
01:11:11.476                             : :Chapter 06
01:16:16.864                             : :Chapter 07
01:37:38.561                             : :Chapter 08

www.club-hd.com





Enlaces de Mega y Google Drive solo disponibles para Miembros VIP

Compra tu Membresía VIP y apoya a Club-HD!

ATENCIÓN! Tenemos TODO el material de Club-HD disponible por Mega y Google Drive, enlaces 100% activos y online hasta la fecha

Llévate tus cuentas Mega PRO II gratis con tu membresía VIP!
Todos los posts vivos con links de Mega y Google Drive.
Todo el material de Club-HD desbloqueado y sin publicidad.

Click Aquí para más información.

Para ver este contenido oculto, debes dar click en una de las siguientes reacciones: Like Like, Love Love, Haha Haha, Wow Wow, Sad Sad, Angry Angry

Para ver este contenido oculto, debes dar click en una de las siguientes reacciones: Like Like, Love Love, Haha Haha, Wow Wow, Sad Sad, Angry Angry

Para ver este contenido oculto, debes dar click en una de las siguientes reacciones: Like Like, Love Love, Haha Haha, Wow Wow, Sad Sad, Angry Angry


Para ver este contenido oculto, debes dar click en una de las siguientes reacciones: Like Like, Love Love, Haha Haha, Wow Wow, Sad Sad, Angry Angry
 
Última edición:

cripp

Well-known member
Registrado
27 Ago 2012
Mensajes
8,059
Puntos de reacción
463
Puntos
113
Gracias por compartir
 

galiel38

Active member
Registrado
28 Sep 2012
Mensajes
682
Puntos de reacción
78
Puntos
28
Edad
32
Muchas gracias por la Película.
 

Usuarios Que Están Viendo Este Tema (Total: 1, Miembros: 0, Invitados: 1)

Arriba