A Single Shot (2013) 720p BDRip Audio Inglés [Subt. Esp] (Thriller. Drama)

Maestro Revolver

Administrador
Registro
9 Ago 2012
Mensajes
3.157
Reacciones (ptje)
55.166


A-Single-Shot.jpg




FichaTecnica.jpg


TÍTULO ORIGINAL: A Single Shot
AÑO: 2013
DURACIÓN: 116 min.
PAÍS: Canadá
DIRECTOR: David M. Rosenthal
GUIÓN: Matthew F. Jones (Novela: Matthew F. Jones)
REPARTO: Sam Rockwell, Jeffrey Wright, Kelly Reilly, Jason Isaacs, William H. Macy, Melissa Leo, Joe Anderson, Ted Levine, Ophelia Lovibond, Amy Sloan
PRODUCTORA: Unified Pictures / Media House Capital / A Single Shot Productions
GÉNERO: Thriller. Drama | Crimen
imdb-logo.png
: http://www.imdb.com/title/tt1540741/




Sinopsis.jpg


La trágica muerte accidental de una joven misteriosa da comienzo a un tenso juego del gato y el ratón entre el cazador John Moon y un grupo de criminales que quieren su pellejo...




Trailer.jpg






Capturas.jpg


1.jpg


2.jpg


3.jpg


4.jpg


5.jpg


6.jpg


La pelicula NO tiene ninguna marca... solo colocamos el nombre de esta web en las capturas




MediaInfo.jpg


Código:
General
Format                                   : Matroska
Format version                           : Version 2
File size                                : 4.61 GiB
Duration                                 : 1h 55mn
Overall bit rate                         : 5 695 Kbps
Movie name                               : www.club-hd.com
Encoded date                             : UTC 2014-01-18 00:43:08
Writing application                      : mkvmerge v5.7.0 ('The Whirlwind') built on Jul  8 2012 20:08:51
Writing library                          : libebml v1.2.3 + libmatroska v1.3.0

Video
ID                                       : 1
Format                                   : AVC
Format/Info                              : Advanced Video Codec
Format profile                           : [email protected]
Format settings, CABAC                   : Yes
Format settings, ReFrames                : 5 frames
Muxing mode                              : Header stripping
Codec ID                                 : V_MPEG4/ISO/AVC
Duration                                 : 1h 55mn
Bit rate                                 : 5 247 Kbps
Width                                    : 1 280 pixels
Height                                   : 536 pixels
Display aspect ratio                     : 2.40:1
Frame rate mode                          : Constant
Frame rate                               : 23.976 fps
Color space                              : YUV
Chroma subsampling                       : 4:2:0
Bit depth                                : 8 bits
Scan type                                : Progressive
Bits/(Pixel*Frame)                       : 0.319
Stream size                              : 4.15 GiB (90%)
Title                                    : www.club-hd.com
Writing library                          : x264 core 140 r2377 1ca7bb9
Language                                 : English
Default                                  : Yes
Forced                                   : No

Audio
ID                                       : 2
Format                                   : AC-3
Format/Info                              : Audio Coding 3
Mode extension                           : CM (complete main)
Format settings, Endianness              : Big
Muxing mode                              : Header stripping
Codec ID                                 : A_AC3
Duration                                 : 1h 55mn
Bit rate mode                            : Constant
Bit rate                                 : 448 Kbps
Channel(s)                               : 6 channels
Channel positions                        : Front: L C R, Side: L R, LFE
Sampling rate                            : 48.0 KHz
Bit depth                                : 16 bits
Compression mode                         : Lossy
Stream size                              : 371 MiB (8%)
Title                                    : www.club-hd.com
Language                                 : English
Default                                  : Yes
Forced                                   : No

Text
ID                                       : 3
Format                                   : UTF-8
Codec ID                                 : S_TEXT/UTF8
Codec ID/Info                            : UTF-8 Plain Text
Title                                    : www.club-hd.com
Language                                 : Spanish
Default                                  : Yes
Forced                                   : No

Menu
00:00:00.000                             : en:00:00:00.000
00:11:28.479                             : en:00:11:28.479
00:20:33.023                             : en:00:20:33.023
00:25:23.272                             : en:00:25:23.272
00:32:37.205                             : en:00:32:37.205
00:41:10.677                             : en:00:41:10.677
00:49:41.312                             : en:00:49:41.312
01:00:03.099                             : en:01:00:03.099
01:06:38.244                             : en:01:06:38.244
01:17:00.449                             : en:01:17:00.449
01:26:36.358                             : en:01:26:36.358
01:36:18.856                             : en:01:36:18.856
01:41:23.911                             : en:01:41:23.911
01:49:14.006                             : en:01:49:14.006




Descarga.jpg



MEGA.jpg

Tenemos TODO el material de Club-HD disponible por Mega, enlaces 100% activos y online hasta la fecha

Llévate tus cuentas Mega PRO III gratis con tu membresía VIP!
Todos los posts vivos con links de Mega.
Todo el material de Club-HD desbloqueado y sin publicidad.

Obtén más información sobre nuestras Membresías VIP



UPLOADED_BANNER.png

Para ver este contenido oculto, debes dar click en el botón"Like", o cualquiera de las otras reacciones:

Me Gusta Me Gusta, Me Encanta Me Encanta, Jaja Jaja, Wow Wow, Triste Triste, Molesto Molesto
 
Última edición por un moderador:
Volver