About Cherry (2012) m-720p BDRip Audio Inglés [Subt. Esp-Ing] (Drama)

Max

Admin
Miembro del Staff
Administrador
Registro
8 Ago 2012
Mensajes
5.589
Reacciones
23.768
Puntos
113
Ubicación
Disco C

Reputation:





TÍTULO ORIGINAL: About Cherry
AÑO: 2012
DURACIÓN: 102 min.
PAÍS: Estados Unidos
DIRECTOR: Stephen Elliott
GUIÓN: Lorelei Lee, Stephen Elliott
MÚSICA: Jeff Russo
FOTOGRAFÍA: Darren Genet
REPARTO: Ashley Hinshaw, Lili Taylor, Dev Patel, Jonny Weston, James Franco, Heather Graham, Diane Farr, Megan Boone, Ernest Waddell, Michael T Stewart
PRODUCTORA: Enderby Entertainment / Gordon Bijelonic / Datari Turner Films
GÉNERO: Drama | Cine dentro del cine

http://www.imdb.com/title/tt1945062/?ref_=fn_al_tt_1






Cuenta la historia de una joven de 18 años que accede a la sugerencia de su novio de hacerse unas fotos por dinero. Con lo que gana por dicha sesión, decide marcharse junto a su mejor amigo a la ciudad de San Francisco, CA., allí conoce a un abogado, interpretado por James Franco, que le ofrece un mundo de glamour, fiestas, drogas, hasta llegar a introducirse en la industria del porno de la ciudad californiana.





























Código:
General
Complete name                            : About Cherry (2012) m-720p BDRip Audio Inglés [Subt. Esp-Ing].mkv
Format                                   : Matroska
Format version                           : Version 4 / Version 2
File size                                : 2.20 GiB
Duration                                 : 1h 42mn
Overall bit rate                         : 3 085 Kbps
Movie name                               : www.club-hd.com --> About Cherry (2012) m-720p BDRip Audio Inglés [Subt. Esp-Ing]
Encoded date                             : UTC 2010-02-22 21:41:31
Writing application                      : mkvmerge v5.9.0 ('On The Loose') built on Dec  9 2012 15:37:01
Writing library                          : libebml v1.3.0 + libmatroska v1.4.0

Video
ID                                       : 1
Format                                   : AVC
Format/Info                              : Advanced Video Codec
Format profile                           : High@L4.1
Format settings, CABAC                   : Yes
Format settings, ReFrames                : 9 frames
Codec ID                                 : V_MPEG4/ISO/AVC
Duration                                 : 1h 42mn
Bit rate                                 : 2 638 Kbps
Width                                    : 1 280 pixels
Height                                   : 720 pixels
Display aspect ratio                     : 16:9
Frame rate mode                          : Constant
Frame rate                               : 23.976 fps
Color space                              : YUV
Chroma subsampling                       : 4:2:0
Bit depth                                : 8 bits
Scan type                                : Progressive
Bits/(Pixel*Frame)                       : 0.119
Stream size                              : 1.84 GiB (83%)
Title                                    : www.club-hd.com --> About Cherry (2012) m-720p BDRip Audio Inglés [Subt. Esp-Ing]
Writing library                          : x264 core 129 r2230 1cffe9f
Encoding settings                        : cabac=1 / ref=9 / deblock=1:-3:-3 / analyse=0x3:0x113 / me=umh / subme=10 / psy=1 / psy_rd=1.00:0.00 / mixed_ref=1 / me_range=16 / chroma_me=1 / trellis=2 / 8x8dct=1 / cqm=0 / deadzone=21,11 / fast_pskip=1 / chroma_qp_offset=-2 / threads=24 / lookahead_threads=4 / sliced_threads=0 / nr=0 / decimate=1 / interlaced=0 / bluray_compat=0 / constrained_intra=0 / bframes=3 / b_pyramid=2 / b_adapt=1 / b_bias=0 / direct=1 / weightb=1 / open_gop=0 / weightp=2 / keyint=250 / keyint_min=23 / scenecut=40 / intra_refresh=0 / rc=2pass / mbtree=0 / bitrate=2638 / ratetol=1.0 / qcomp=0.60 / qpmin=0 / qpmax=69 / qpstep=4 / cplxblur=20.0 / qblur=0.5 / ip_ratio=1.40 / pb_ratio=1.30 / aq=1:0.80
Language                                 : English
Default                                  : Yes
Forced                                   : No

Audio
ID                                       : 2
Format                                   : AC-3
Format/Info                              : Audio Coding 3
Mode extension                           : CM (complete main)
Format settings, Endianness              : Big
Codec ID                                 : A_AC3
Duration                                 : 1h 42mn
Bit rate mode                            : Constant
Bit rate                                 : 448 Kbps
Channel(s)                               : 6 channels
Channel positions                        : Front: L C R, Side: L R, LFE
Sampling rate                            : 48.0 KHz
Bit depth                                : 16 bits
Compression mode                         : Lossy
Stream size                              : 327 MiB (15%)
Title                                    : About Cherry (2012) - Inglés AC3 5.1
Language                                 : English
Default                                  : Yes
Forced                                   : No

Text #1
ID                                       : 3
Format                                   : UTF-8
Codec ID                                 : S_TEXT/UTF8
Codec ID/Info                            : UTF-8 Plain Text
Title                                    : Subtítulos Español
Language                                 : Spanish
Default                                  : Yes
Forced                                   : No

Text #2
ID                                       : 4
Format                                   : UTF-8
Codec ID                                 : S_TEXT/UTF8
Codec ID/Info                            : UTF-8 Plain Text
Title                                    : Subtítulos Inglés
Language                                 : English
Default                                  : No
Forced                                   : No

Menu
00:00:00.000                             : en:Chapter 1
00:09:32.238                             : en:Chapter 2
00:17:55.032                             : en:Chapter 3
00:26:55.572                             : en:Chapter 4
00:34:11.466                             : en:Chapter 5
00:45:03.701                             : en:Chapter 6
00:54:47.326                             : en:Chapter 7
01:02:14.022                             : en:Chapter 8
01:11:38.461                             : en:Chapter 9
01:21:12.284                             : en:Chapter 10
01:31:07.587                             : en:Chapter 11
01:38:06.714                             : en:Chapter 12










Enlaces de Mega y Fireload solo disponibles para Miembros VIP

Compra tu Membresía VIP y apoya a Club-HD!

ATENCIÓN! Tenemos TODO el material de Club-HD disponible por Mega y Fireload, enlaces 100% activos y online hasta la fecha

Llévate tus cuentas Mega PRO II gratis con tu membresía VIP!
Todos los posts vivos con links de Mega y Fireload.
Todo el material de Club-HD desbloqueado y sin publicidad.

Click Aquí para más información.




Enlaces de Mega y Fireload solo disponibles para Miembros VIP

Compra tu Membresía VIP y apoya a Club-HD!

ATENCIÓN! Tenemos TODO el material de Club-HD disponible por Mega y Fireload, enlaces 100% activos y online hasta la fecha

Llévate tus cuentas Mega PRO II gratis con tu membresía VIP!
Todos los posts vivos con links de Mega y Fireload.
Todo el material de Club-HD desbloqueado y sin publicidad.

Click Aquí para más información.



Para ver este contenido oculto, debes dar click en una de las siguientes reacciones : Like Like, Love Love, Haha Haha, Wow Wow, Sad Sad, Angry Angry
 
Última edición por un moderador:

zacygal

Well-known member
Registro
3 Sep 2012
Mensajes
1.515
Reacciones
1.536
Puntos
113
Edad
49

Reputation:

buena pelikula lastima para mi que el audio este en ingles y no Dual, pero como siempre buena maestro ...
 

Usuarios Que Están Viendo Este Tema (Total: 1, Miembros: 0, Invitados: 1)

Arriba