AC/DC - Live at Donington (1992) 1080p BDRip [AC3 5.1] (Concierto)

Maestro Revolver

Administrador
Registro
9 Ago 2012
Mensajes
3.157
Reacciones (ptje)
55.042

ACDC-Live-At-Donington.jpg





Sinopsis.jpg


AC/DC atravesó las puertas del legendario Castle Donington en agosto de 1991 para encabezar el festival Monster of Rock por tercera vez en su carrera. La banda tomó el escenario al asalto y ofreció al numeroso público reunido un concierto de dos horas plagado de éxitos, además de un espectacular despliegue visual con sitio para cañones, las campanas de “Hells Bells” y una Rosie hinchable de tamaño gigante. Filmado en Panavision con 26 cámaras de 35 mm (una de ellas en un helicóptero), AC/DC Live at Donington es un documento en directo imprescindible.
imdb-logo.png
: http://www.imdb.com/title/tt0337566/



Track List:

1. Thunderstruck
2. Shoot To Thrill
3. Back In Black
4. Hell Ain't A Bad Place To Be
5. Heatseeker
6. Fire Your Guns
7. Jailbreak
8. The Jack
9. Dirty Deeds Done Dirt Cheap
10. Moneytalks
11. Hells Bells
12. High Voltage
13. Whole Lotta Rosie
14. You Shook Me All Night Long
15. T.N.T.
16. Let There Be Rock
17. Highway To Hell
18. For Those About To Rock (We Salute You)




Trailer.jpg






Capturas.jpg


1.jpg


2.jpg


3.jpg


4.jpg


5.jpg


6.jpg





MediaInfo.jpg


Código:
General
Format                                   : Matroska
Format version                           : Version 2
File size                                : 5.26 GiB
Duration                                 : 1h 58mn
Overall bit rate                         : 6 371 Kbps
Movie name                               : www.club-hd.com
Encoded date                             : UTC 2013-04-19 23:43:10
Writing application                      : mkvmerge v5.7.0 ('The Whirlwind') built on Jul  8 2012 20:08:51
Writing library                          : libebml v1.2.3 + libmatroska v1.3.0

Video
ID                                       : 1
Format                                   : AVC
Format/Info                              : Advanced Video Codec
Format profile                           : [email protected]
Format settings, CABAC                   : Yes
Format settings, ReFrames                : 4 frames
Codec ID                                 : V_MPEG4/ISO/AVC
Duration                                 : 1h 58mn
Bit rate                                 : 5 605 Kbps
Width                                    : 1 916 pixels
Height                                   : 1 088 pixels
Display aspect ratio                     : 16:9
Frame rate mode                          : Constant
Frame rate                               : 23.976 fps
Color space                              : YUV
Chroma subsampling                       : 4:2:0
Bit depth                                : 8 bits
Scan type                                : Progressive
Bits/(Pixel*Frame)                       : 0.112
Stream size                              : 4.62 GiB (88%)
Title                                    : www.club-hd.com
Writing library                          : x264 core 112
Language                                 : English
Default                                  : Yes
Forced                                   : No
Color primaries                          : BT.709
Transfer characteristics                 : BT.709
Matrix coefficients                      : BT.709

Audio
ID                                       : 2
Format                                   : AC-3
Format/Info                              : Audio Coding 3
Mode extension                           : CM (complete main)
Format settings, Endianness              : Big
Codec ID                                 : A_AC3
Duration                                 : 1h 58mn
Bit rate mode                            : Constant
Bit rate                                 : 640 Kbps
Channel(s)                               : 6 channels
Channel positions                        : Front: L C R, Side: L R, LFE
Sampling rate                            : 48.0 KHz
Bit depth                                : 16 bits
Compression mode                         : Lossy
Stream size                              : 541 MiB (10%)
Title                                    : www.club-hd.com
Language                                 : English
Default                                  : Yes
Forced                                   : No

Menu
00:00:01.000                             : :01 Thunderstruck
00:05:28.000                             : :02 Shoot To Thrill
00:11:05.000                             : :03 Back In Black
00:15:08.000                             : :04 Hell Ain't A Bad Place To Be
00:19:28.000                             : :05 Heatseeker
00:23:00.000                             : :06 Fire Your Guns
00:26:10.000                             : :07 Jailbreak
00:45:38.000                             : :08 The Jack
00:52:00.000                             : :09 Dirty Deeds Done Dirt Cheap
00:56:40.000                             : :10 Moneytalks
01:00:48.000                             : :11 Hells Bells
01:06:39.000                             : :12 High Voltage
01:15:49.000                             : :13 Whole Lotta Rosie
01:20:24.000                             : :14 You Shook Me All Night Long
01:23:58.000                             : :15 T.N.T.
01:27:24.000                             : :16 Let There Be Rock
01:44:43.000                             : :17 Highway To Hell
01:49:02.000                             : :18 For Those About to Rock
01:55:26.000                             : :19 Credits




Descarga.jpg



MEGA.jpg

Tenemos TODO el material de Club-HD disponible por Mega, enlaces 100% activos y online hasta la fecha

Llévate tus cuentas Mega PRO III gratis con tu membresía VIP!
Todos los posts vivos con links de Mega.
Todo el material de Club-HD desbloqueado y sin publicidad.

Obtén más información sobre nuestras Membresías VIP



UPLOADED_BANNER.png

Para ver este contenido oculto, debes dar click en el botón"Like", o cualquiera de las otras reacciones:

Me Gusta Me Gusta, Me Encanta Me Encanta, Jaja Jaja, Wow Wow, Triste Triste, Molesto Molesto
 
Última edición por un moderador:
gracias Master...a la cola de descarga. MUCHAS GRACIAS!!!!!!!Tb_up3
 
Lo tuyo es cada dia mas increible , gracias Bestia !!!!!!Tb_up3:aplausos:Hurr4h
 
Volver