Ace Ventura: Pet Detective (1994) 1080p BDRip Dual Latino-Inglés [Subt. Esp] (Comedia)

Maestro Revolver

Administrador
9 Ago 2012
3.157
54.713


Ace Ventura: Pet Detective (1994) 1080p BDRip Dual Latino-Inglés [Subt. Esp] (Comedia)




Ace Ventura: Pet Detective (1994) 1080p BDRip Dual Latino-Inglés [Subt. Esp] (Comedia)


TÍTULO ORIGINAL: Ace Ventura, Pet Detective
AÑO: 1994
DURACIÓN: 85 min.
PAÍS: USA
DIRECTOR: Tom Shadyac
GUIÓN: Jack B. Bernstein, Tom Shadyac, Jim Carrey
REPARTO: Jim Carrey, Sean Young, Courteney Cox, Tone Loc, Dan Marino, Noble Willingham, Troy Evans, Udo Kier, Raynor Scheine, Frank Adonis, Tiny Ron, David Margulies, John Capodice, Judy Clayton, Bill Zuckert, Alice Drummond, Rebecca Ferratti, Mark Margolis
PRODUCTORA: Morgan Creek
GÉNERO: Comedia | Animales. Delfines
Ace Ventura: Pet Detective (1994) 1080p BDRip Dual Latino-Inglés [Subt. Esp] (Comedia)
: http://www.imdb.com/title/tt0109040/




Ace Ventura: Pet Detective (1994) 1080p BDRip Dual Latino-Inglés [Subt. Esp] (Comedia)


El detective Ace Ventura, especializado en rescatar animales secuestrados, recibe el encargo de localizar y rescatar el delfin Copo de Nieve, mascota del equipo de fútbol de Miami, que ha sido secuestrado el día anterior a la gran final que debe disputar el equipo.




Ace Ventura: Pet Detective (1994) 1080p BDRip Dual Latino-Inglés [Subt. Esp] (Comedia)






Ace Ventura: Pet Detective (1994) 1080p BDRip Dual Latino-Inglés [Subt. Esp] (Comedia)


Ace Ventura: Pet Detective (1994) 1080p BDRip Dual Latino-Inglés [Subt. Esp] (Comedia)


Ace Ventura: Pet Detective (1994) 1080p BDRip Dual Latino-Inglés [Subt. Esp] (Comedia)


Ace Ventura: Pet Detective (1994) 1080p BDRip Dual Latino-Inglés [Subt. Esp] (Comedia)


Ace Ventura: Pet Detective (1994) 1080p BDRip Dual Latino-Inglés [Subt. Esp] (Comedia)


Ace Ventura: Pet Detective (1994) 1080p BDRip Dual Latino-Inglés [Subt. Esp] (Comedia)


Ace Ventura: Pet Detective (1994) 1080p BDRip Dual Latino-Inglés [Subt. Esp] (Comedia)


La pelicula NO tiene ninguna marca... solo colocamos el nombre de esta web en las capturas




Ace Ventura: Pet Detective (1994) 1080p BDRip Dual Latino-Inglés [Subt. Esp] (Comedia)


Código:
General
Format                                   : Matroska
Format version                           : Version 2
File size                                : 7.05 GiB
Duration                                 : 1h 26mn
Overall bit rate                         : 11.7 Mbps
Movie name                               : www.club-hd.com
Encoded date                             : UTC 2013-09-29 05:04:10
Writing application                      : mkvmerge v5.7.0 ('The Whirlwind') built on Jul  8 2012 20:08:51
Writing library                          : libebml v1.2.3 + libmatroska v1.3.0

Video
ID                                       : 1
Format                                   : AVC
Format/Info                              : Advanced Video Codec
Format profile                           : [email protected]
Format settings, CABAC                   : Yes
Format settings, ReFrames                : 4 frames
Codec ID                                 : V_MPEG4/ISO/AVC
Duration                                 : 1h 26mn
Bit rate                                 : 9 402 Kbps
Width                                    : 1 920 pixels
Height                                   : 1 080 pixels
Display aspect ratio                     : 16:9
Frame rate mode                          : Constant
Frame rate                               : 23.976 fps
Color space                              : YUV
Chroma subsampling                       : 4:2:0
Bit depth                                : 8 bits
Scan type                                : Progressive
Bits/(Pixel*Frame)                       : 0.189
Stream size                              : 5.51 GiB (78%)
Title                                    : www.club-hd.com
Writing library                          : x264 core 133 r2334 a3ac64b
Language                                 : English
Default                                  : Yes
Forced                                   : No

Audio #1
ID                                       : 2
Format                                   : AC-3
Format/Info                              : Audio Coding 3
Format profile                           : Dolby Digital
Mode extension                           : CM (complete main)
Format settings, Endianness              : Big
Codec ID                                 : A_AC3
Duration                                 : 1h 26mn
Bit rate mode                            : Constant
Bit rate                                 : 192 Kbps
Channel(s)                               : 2 channels
Channel positions                        : Front: L R
Sampling rate                            : 48.0 KHz
Bit depth                                : 16 bits
Compression mode                         : Lossy
Stream size                              : 118 MiB (2%)
Title                                    : www.club-hd.com  >>  Latino AC3
Language                                 : Spanish
Default                                  : Yes
Forced                                   : No

Audio #2
ID                                       : 3
Format                                   : AC-3
Format/Info                              : Audio Coding 3
Mode extension                           : CM (complete main)
Format settings, Endianness              : Big
Codec ID                                 : A_AC3
Duration                                 : 1h 26mn
Bit rate mode                            : Constant
Bit rate                                 : 640 Kbps
Channel(s)                               : 6 channels
Channel positions                        : Front: L C R, Side: L R, LFE
Sampling rate                            : 48.0 KHz
Bit depth                                : 16 bits
Compression mode                         : Lossy
Stream size                              : 394 MiB (5%)
Title                                    : www.club-hd.com  >>  Inglés AC3
Language                                 : English
Default                                  : No
Forced                                   : No

Audio #3
ID                                       : 4
Format                                   : DTS
Format/Info                              : Digital Theater Systems
Mode                                     : 16
Format settings, Endianness              : Big
Codec ID                                 : A_DTS
Duration                                 : 1h 26mn
Bit rate mode                            : Constant
Bit rate                                 : 1 509 Kbps
Channel(s)                               : 6 channels
Channel positions                        : Front: L C R, Side: L R, LFE
Sampling rate                            : 48.0 KHz
Bit depth                                : 24 bits
Compression mode                         : Lossy
Stream size                              : 928 MiB (13%)
Title                                    : www.club-hd.com  >>  Inglés DTS
Language                                 : English
Default                                  : No
Forced                                   : No

Text
ID                                       : 5
Format                                   : UTF-8
Codec ID                                 : S_TEXT/UTF8
Codec ID/Info                            : UTF-8 Plain Text
Language                                 : Spanish
Default                                  : No
Forced                                   : No

Menu
00:00:00.000                             : en:00:00:00.000
00:03:39.010                             : en:00:03:39.010
00:05:47.847                             : en:00:05:47.847
00:06:43.320                             : en:00:06:43.320
00:07:49.052                             : en:00:07:49.052
00:11:01.202                             : en:00:11:01.202
00:13:28.641                             : en:00:13:28.641
00:15:01.526                             : en:00:15:01.526
00:18:12.925                             : en:00:18:12.925
00:22:55.416                             : en:00:22:55.416
00:25:42.291                             : en:00:25:42.291
00:28:20.073                             : en:00:28:20.073
00:33:16.411                             : en:00:33:16.411
00:36:44.202                             : en:00:36:44.202
00:38:35.146                             : en:00:38:35.146
00:42:58.117                             : en:00:42:58.117
00:46:30.454                             : en:00:46:30.454
00:47:49.158                             : en:00:47:49.158
00:52:26.894                             : en:00:52:26.894
00:54:37.483                             : en:00:54:37.483
00:58:17.452                             : en:00:58:17.452
01:00:40.303                             : en:01:00:40.303
01:04:04.591                             : en:01:04:04.591
01:07:41.891                             : en:01:07:41.891
01:10:39.527                             : en:01:10:39.527
01:12:20.795                             : en:01:12:20.795
01:14:09.111                             : en:01:14:09.111
01:15:41.078                             : en:01:15:41.078
01:19:33.310                             : en:01:19:33.310
01:21:59.540                             : en:01:21:59.540




Ace Ventura: Pet Detective (1994) 1080p BDRip Dual Latino-Inglés [Subt. Esp] (Comedia)



Ace Ventura: Pet Detective (1994) 1080p BDRip Dual Latino-Inglés [Subt. Esp] (Comedia)

Enlaces de Mega solo disponibles para Miembros VIP

Compra tu Membresía VIP y apoya a Club-HD!

ATENCIÓN! Tenemos TODO el material de Club-HD disponible por Mega, enlaces 100% activos y online hasta la fecha

Llévate tus cuentas Mega PRO III gratis con tu membresía VIP!
Todos los posts vivos con links de Mega.
Todo el material de Club-HD desbloqueado y sin publicidad.

Click Aquí para más información.


Ace Ventura: Pet Detective (1994) 1080p BDRip Dual Latino-Inglés [Subt. Esp] (Comedia)

Enlaces de Mega solo disponibles para Miembros VIP

Compra tu Membresía VIP y apoya a Club-HD!

ATENCIÓN! Tenemos TODO el material de Club-HD disponible por Mega, enlaces 100% activos y online hasta la fecha

Llévate tus cuentas Mega PRO III gratis con tu membresía VIP!
Todos los posts vivos con links de Mega.
Todo el material de Club-HD desbloqueado y sin publicidad.

Click Aquí para más información.


Ace Ventura: Pet Detective (1994) 1080p BDRip Dual Latino-Inglés [Subt. Esp] (Comedia)

Para ver este contenido oculto, debes dar click en el botón "Like", o cualquiera de las otras reacciones:

Me Gusta Me Gusta, Me Encanta Me Encanta, Jaja Jaja, Wow Wow, Triste Triste, Molesto Molesto
 
Última edición por un moderador:
5 Sep 2012
1.107
1.053
otro muy buen clasico en aquel entonces me gustaba verlas y he aquí festival de Ace Ventura al estilo del club hd disfruten
 

Nosferatu

Honorífico
31 Ago 2012
2.003
1.266
Muchas Gracias por este clásico con el Gran Ace ventura!! a cambiar la versión de menor calidad por esta 1080p!!:aplausos::aplausos::aplausos:

Gracias Monstruo R22!!!:aplausos::aplausos::dplgar:
 
27 Ago 2012
2.168
191
Excelente master me la llevo, ya tenia las los en HDTV, esta se ven que tiene mejor calidad mil gracias...:dplgar:
 
Arriba