Adele - Live at the Royal Albert Hall (2011) 720p BDRip [AC3 5.1] [Subt. Esp](Concierto)

Maestro Revolver

Well-known member
Miembro del Staff
Administrador
Registro
9 Ago 2012
Mensajes
3.567








Adele Live At The Royal Albert Hall es el primer concierto de la cantante Adele comercializado en DVD y Blu-ray. El show fue grabado en el Royal Albert Hall de Londres con motivo de la gira Adele Live el 22 de septiembre de 2011.



Track List:

1.Hometown Glory
2.I ll Be Waiting
3.Don t You Remember
4.Turning Tables
5.Set Fire To The Rain
6.If It Hadn t Been For Love
7.My Same
8.Take It All
9.Rumour Has It
10.Right As Rain
11.One & Only
12.Lovesong
13.Chasing Pavements
14.I Can t Make You Love Me
15.Make You Feel My Love
16.Someone Like You
17.Rolling In The Deep
+ Behind The Scenes





























Código:
General
Format                                   : Matroska
Format version                           : Version 2
File size                                : 5.00 GiB
Duration                                 : 1h 39mn
Overall bit rate                         : 7 200 Kbps
Movie name                               : www.club-hd.com
Encoded date                             : UTC 2012-12-29 16:52:11
Writing application                      : mkvmerge v5.7.0 ('The Whirlwind') built on Jul  8 2012 20:08:51
Writing library                          : libebml v1.2.3 + libmatroska v1.3.0

Video
ID                                       : 1
Format                                   : AVC
Format/Info                              : Advanced Video Codec
Format profile                           : High@L4.1
Format settings, CABAC                   : Yes
Format settings, ReFrames                : 11 frames
Codec ID                                 : V_MPEG4/ISO/AVC
Duration                                 : 1h 39mn
Bit rate                                 : 6 417 Kbps
Width                                    : 1 280 pixels
Height                                   : 548 pixels
Display aspect ratio                     : 2.35:1
Frame rate mode                          : Constant
Frame rate                               : 25.000 fps
Color space                              : YUV
Chroma subsampling                       : 4:2:0
Bit depth                                : 8 bits
Scan type                                : Progressive
Bits/(Pixel*Frame)                       : 0.366
Stream size                              : 4.46 GiB (89%)
Title                                    : Adele - Live at the Royal Albert Hall (2011)
Writing library                          : x264 core 119 r2106 07efeb4
Language                                 : English
Default                                  : Yes
Forced                                   : No
Matrix coefficients                      : BT.709

Audio
ID                                       : 2
Format                                   : AC-3
Format/Info                              : Audio Coding 3
Mode extension                           : CM (complete main)
Format settings, Endianness              : Big
Codec ID                                 : A_AC3
Duration                                 : 1h 39mn
Bit rate mode                            : Constant
Bit rate                                 : 640 Kbps
Channel(s)                               : 6 channels
Channel positions                        : Front: L C R, Side: L R, LFE
Sampling rate                            : 48.0 KHz
Bit depth                                : 16 bits
Compression mode                         : Lossy
Stream size                              : 455 MiB (9%)
Title                                    : Ac3 5.1 @ 640Kbps
Language                                 : English
Default                                  : Yes
Forced                                   : No

Menu
00:00:00.000                             : en:Hometown Glory
00:05:55.355                             : en:I'll Be Wating
00:10:50.049                             : en:Don't You Remember
00:17:14.033                             : en:Turning Tables
00:21:25.017                             : en:Set Fire To The Rain
00:27:42.861                             : en:If It Hadn't Been For Love
00:33:28.506                             : en:My Same
00:38:26.070                             : en:Take It All
00:43:49.827                             : en:Rumour Has It
00:47:36.620                             : en:Right As Rain
00:52:33.984                             : en:One And Only
01:00:49.312                             : en:Lovesong
01:07:16.666                             : en:Chasing Pavements
01:11:19.976                             : en:I Can't Make You Love Me
01:16:39.995                             : en:Make You Feel My Love
01:26:36.425                             : en:Someone Like You
01:32:57.639                             : en:Rolling In The Deep



Adele - Live at the Royal Albert Hall - Behind The Scenes 720p

Format            : Matroska at 4 298 Kbps
Length            : 262 MiB for 8mn 31s 279ms

Video #0          : AVC at 3 988 Kbps
Aspect            : 1280 x 542 (2.362) at 25.000 fps

Audio #0          : AC-3 at 224 Kbps
Infos             : 2 channels, 48.0 KHz
Language          : en




Subtítulos Aqui








Enlaces de Mega y Google Drive solo disponibles para Miembros VIP

Compra tu Membresía VIP y apoya a Club-HD!

ATENCIÓN! Tenemos TODO el material de Club-HD disponible por Mega y Google Drive, enlaces 100% activos y online hasta la fecha

Llévate tus cuentas Mega PRO III gratis con tu membresía VIP!
Todos los posts vivos con links de Mega y Google Drive.
Todo el material de Club-HD desbloqueado y sin publicidad.

Click Aquí para más información.



Para ver este contenido oculto, debes dar click en una de las siguientes reacciones : Like Like, Love Love, Haha Haha, Wow Wow, Sad Sad, Angry Angry
 
Última edición por un moderador:

BalooBear

Member
Registro
28 Ago 2012
Mensajes
261
Edad
28
Muchísimas gracias y feliz año nuevo! Hace algún tiempo que estaba esperando este concierto
 

ROD

New member
Registro
28 Ago 2012
Mensajes
458
gracias revolver excelente concierto que tengas buen fin de año claro tambien a max
 

Usuarios Que Están Viendo Este Tema (Total: 1, Miembros: 0, Invitados: 1)

Quién Leyó Este Tema (Total Miembros: 6)

Arriba