Admission (2013) 720p BDRip Dual Latino-Inglés [Subt. Esp] (Romance. Comedia)

Maestro Revolver

Well-known member
Miembro del Staff
Administrador
Registro
9 Ago 2012
Mensajes
3.567








TÍTULO ORIGINAL: Admission
AÑO: 2013
DURACIÓN: 117 min.
PAÍS: USA
DIRECTOR: Paul Weitz
GUIÓN: Karen Croner, Jean Hanff Korelitz
REPARTO: Tina Fey, Paul Rudd, Michael Sheen, Wallace Shawn, Gloria Reuben, Lily Tomlin, Nat Wolff, Sonya Walger, Tina Benko, Brian d'Arcy James, Kelly Southerland, Barbara Vincent, Dan Levy, Ben Levin, Jeremy Frutkin, Ken Barnett, Michael Genadry, Robert Sobieski
PRODUCTORA: Focus Features / Depth of Field
GÉNERO: Romance. Comedia | Comedia romántica. Adopción. Colegios & Universidad
: http://www.imdb.com/title/tt1814621/






Portia Nathan (Tina Fey), miembro del equipo de admisiones de la Universidad de Princeton, viaja a una granja escuela en New Hampshire para ver a un candidato. Una vez allí descubre que el co-fundador de la escuela, John Pressman (Paul Rudd), fue a la universidad con ella, lo que le trae a la mente el hijo que ella dio en adopción cuando era una universitaria. De hecho, cualquiera de los alumnos de John podría ser su hijo.
























La pelicula NO tiene ninguna marca... solo colocamos el nombre de esta web en las capturas






Código:
General
Format                                   : Matroska
Format version                           : Version 2
File size                                : 3.81 GiB
Duration                                 : 1h 47mn
Overall bit rate                         : 5 097 Kbps
Movie name                               : www.club-hd.com
Encoded date                             : UTC 2013-06-29 17:28:24
Writing application                      : mkvmerge v5.7.0 ('The Whirlwind') built on Jul  8 2012 20:08:51
Writing library                          : libebml v1.2.3 + libmatroska v1.3.0

Video
ID                                       : 1
Format                                   : AVC
Format/Info                              : Advanced Video Codec
Format profile                           : High@L4.1
Format settings, CABAC                   : Yes
Format settings, ReFrames                : 5 frames
Codec ID                                 : V_MPEG4/ISO/AVC
Duration                                 : 1h 47mn
Bit rate                                 : 4 327 Kbps
Width                                    : 1 280 pixels
Height                                   : 536 pixels
Display aspect ratio                     : 2.40:1
Frame rate mode                          : Constant
Frame rate                               : 23.976 fps
Color space                              : YUV
Chroma subsampling                       : 4:2:0
Bit depth                                : 8 bits
Scan type                                : Progressive
Bits/(Pixel*Frame)                       : 0.263
Stream size                              : 3.16 GiB (83%)
Title                                    : www.club-hd.com
Writing library                          : x264 core 133 r2334 a3ac64b
Language                                 : English
Default                                  : Yes
Forced                                   : No

Audio #1
ID                                       : 2
Format                                   : AC-3
Format/Info                              : Audio Coding 3
Mode extension                           : CM (complete main)
Format settings, Endianness              : Big
Codec ID                                 : A_AC3
Duration                                 : 1h 47mn
Bit rate mode                            : Constant
Bit rate                                 : 320 Kbps
Channel(s)                               : 6 channels
Channel positions                        : Front: L C R, Side: L R, LFE
Sampling rate                            : 48.0 KHz
Bit depth                                : 16 bits
Compression mode                         : Lossy
Stream size                              : 245 MiB (6%)
Title                                    : www.club-hd.com  >>  Latino
Language                                 : Spanish
Default                                  : Yes
Forced                                   : No

Audio #2
ID                                       : 3
Format                                   : AC-3
Format/Info                              : Audio Coding 3
Mode extension                           : CM (complete main)
Format settings, Endianness              : Big
Codec ID                                 : A_AC3
Duration                                 : 1h 47mn
Bit rate mode                            : Constant
Bit rate                                 : 448 Kbps
Channel(s)                               : 6 channels
Channel positions                        : Front: L C R, Side: L R, LFE
Sampling rate                            : 48.0 KHz
Bit depth                                : 16 bits
Compression mode                         : Lossy
Stream size                              : 343 MiB (9%)
Title                                    : www.club-hd.com  >>  Inglés
Language                                 : English
Default                                  : No
Forced                                   : No

Text
ID                                       : 4
Format                                   : UTF-8
Codec ID                                 : S_TEXT/UTF8
Codec ID/Info                            : UTF-8 Plain Text
Language                                 : Spanish
Default                                  : No
Forced                                   : No

Menu
00:00:00.000                             : en:00:00:00.000
00:06:25.635                             : en:00:06:25.635
00:10:23.164                             : en:00:10:23.164
00:16:40.124                             : en:00:16:40.124
00:20:07.665                             : en:00:20:07.665
00:25:02.251                             : en:00:25:02.251
00:29:10.958                             : en:00:29:10.958
00:35:35.425                             : en:00:35:35.425
00:40:15.622                             : en:00:40:15.622
00:46:49.724                             : en:00:46:49.724
00:50:58.514                             : en:00:50:58.514
00:55:45.634                             : en:00:55:45.634
00:58:55.824                             : en:00:58:55.824
01:05:51.322                             : en:01:05:51.322
01:09:30.625                             : en:01:09:30.625
01:13:32.700                             : en:01:13:32.700
01:19:58.544                             : en:01:19:58.544
01:27:01.091                             : en:01:27:01.091
01:35:40.985                             : en:01:35:40.985
01:40:42.328                             : en:01:40:42.328








Enlaces de Mega y Google Drive solo disponibles para Miembros VIP

Compra tu Membresía VIP y apoya a Club-HD!

ATENCIÓN! Tenemos TODO el material de Club-HD disponible por Mega y Google Drive, enlaces 100% activos y online hasta la fecha

Llévate tus cuentas Mega PRO III gratis con tu membresía VIP!
Todos los posts vivos con links de Mega y Google Drive.
Todo el material de Club-HD desbloqueado y sin publicidad.

Click Aquí para más información.


Para ver este contenido oculto, debes dar click en una de las siguientes reacciones : Like Like, Love Love, Haha Haha, Wow Wow, Sad Sad, Angry Angry



 
Última edición por un moderador:

eljumachi

Well-known member
Miembro VIP
Registro
27 Ago 2012
Mensajes
2.197
je je je hoy seré el primero gracias R22 estas comedias romántica si le gusta a mi señora saludos
 

Usuarios Que Están Viendo Este Tema (Total: 1, Miembros: 0, Invitados: 1)

Quién Leyó Este Tema (Total Miembros: 3)

Arriba