Aerosmith - Rock for the Rising Sun (2013) 720p BDRip [AC3 - DTS 5.1] (Concierto)

Maestro Revolver

Well-known member
Miembro del Staff
Administrador
Registro
9 Ago 2012
Mensajes
3.567








Aerosmith acabe de editar Rock for the Rising Sun, un DVD en el que se puede ver el show que la banda realizó en Japón durante la gira que los llevó hasta el país asiático en 2011. Por aquel entonces los nipones se estaban reponiendo del terremoto y tsunami que ocasionó el colapso de la planta nuclear de Fukushima.

Rock for the Rising Sun fue dirigido por Casey Patrik Tebo, que empezó a trabajar con la banda en 2006. “Grabé todas esas imágenes, entrevisté a los fans y me di cuenta que hay un enamoramiento entre Aerosmith y el público japonés que no puede compararse con nada de lo que haya visto”, describió Tebo.

El DVD incluye, además del concierto, escenas de los miembros de la banda debajo del escenario. Muestra cómo es la vida de los músicos durante una gira.

Para que te des una idea de lo que podés encontrar en este trabajo te dejamos con Sweet Emotion. Esto es apenas una muestra de lo que hay en Rock for the Rising Sun.



Track List:

1. Draw The Line
2. Love In An Elevator
3. Livin' On The Edge
4. Hangman Jury
5. No More No More
6. Mama Kin
7. Monkey On My Back
8. Toys In The Attic
9. Listen To The Thunder
10. Sweet Emotion
11. Boogie Man
12. Rats In The Cellar
13. Movin' Out
14. Last Child
15. S.O.S. (Too Bad)
16. Walk This Way
17. Train Kept A Rollin' (credits)





























Código:
General
Format                                   : Matroska
Format version                           : Version 2
File size                                : 4.78 GiB
Duration                                 : 1h 34mn
Overall bit rate                         : 7 245 Kbps
Movie name                               : www.club-hd.com
Encoded date                             : UTC 2013-08-02 02:02:51
Writing application                      : mkvmerge v5.7.0 ('The Whirlwind') built on Jul  8 2012 20:08:51
Writing library                          : libebml v1.2.3 + libmatroska v1.3.0

Video
ID                                       : 1
Format                                   : AVC
Format/Info                              : Advanced Video Codec
Format profile                           : High@L4.1
Format settings, CABAC                   : Yes
Format settings, ReFrames                : 5 frames
Codec ID                                 : V_MPEG4/ISO/AVC
Duration                                 : 1h 34mn
Bit rate                                 : 5 095 Kbps
Width                                    : 1 280 pixels
Height                                   : 720 pixels
Display aspect ratio                     : 16:9
Frame rate mode                          : Constant
Frame rate                               : 29.970 fps
Color space                              : YUV
Chroma subsampling                       : 4:2:0
Bit depth                                : 8 bits
Scan type                                : Progressive
Bits/(Pixel*Frame)                       : 0.184
Stream size                              : 3.27 GiB (68%)
Title                                    : www.club-hd.com
Writing library                          : x264 core 135 r2345 f0c1c53
Language                                 : English
Default                                  : Yes
Forced                                   : No

Audio #1
ID                                       : 2
Format                                   : AC-3
Format/Info                              : Audio Coding 3
Mode extension                           : CM (complete main)
Format settings, Endianness              : Big
Codec ID                                 : A_AC3
Duration                                 : 1h 34mn
Bit rate mode                            : Constant
Bit rate                                 : 640 Kbps
Channel(s)                               : 6 channels
Channel positions                        : Front: L C R, Side: L R, LFE
Sampling rate                            : 48.0 KHz
Bit depth                                : 16 bits
Compression mode                         : Lossy
Stream size                              : 433 MiB (9%)
Title                                    : AC3
Language                                 : English
Default                                  : Yes
Forced                                   : No

Audio #2
ID                                       : 3
Format                                   : DTS
Format/Info                              : Digital Theater Systems
Mode                                     : 16
Format settings, Endianness              : Big
Codec ID                                 : A_DTS
Duration                                 : 1h 34mn
Bit rate mode                            : Constant
Bit rate                                 : 1 509 Kbps
Channel(s)                               : 6 channels
Channel positions                        : Front: L C R, Side: L R, LFE
Sampling rate                            : 48.0 KHz
Bit depth                                : 24 bits
Compression mode                         : Lossy
Stream size                              : 1 020 MiB (21%)
Title                                    : DTS
Language                                 : English
Default                                  : No
Forced                                   : No

Menu
00:00:00.000                             : en:00:00:00.000
00:01:10.337                             : en:00:01:10.337
00:05:57.490                             : en:00:05:57.490
00:13:32.445                             : en:00:13:32.445
00:19:10.316                             : en:00:19:10.316
00:22:15.568                             : en:00:22:15.568
00:28:42.621                             : en:00:28:42.621
00:35:49.614                             : en:00:35:49.614
00:40:00.098                             : en:00:40:00.098
00:43:56.367                             : en:00:43:56.367
00:48:58.803                             : en:00:48:58.803
00:59:08.478                             : en:00:59:08.478
01:01:40.897                             : en:01:01:40.897
01:07:18.968                             : en:01:07:18.968
01:13:27.270                             : en:01:13:27.270
01:22:56.939                             : en:01:22:56.939
01:26:32.020                             : en:01:26:32.020
01:33:00.041                             : en:01:33:00.041








Enlaces de Mega y Google Drive solo disponibles para Miembros VIP

Compra tu Membresía VIP y apoya a Club-HD!

ATENCIÓN! Tenemos TODO el material de Club-HD disponible por Mega y Google Drive, enlaces 100% activos y online hasta la fecha

Llévate tus cuentas Mega PRO III gratis con tu membresía VIP!
Todos los posts vivos con links de Mega y Google Drive.
Todo el material de Club-HD desbloqueado y sin publicidad.

Click Aquí para más información.


Para ver este contenido oculto, debes dar click en una de las siguientes reacciones : Like Like, Love Love, Haha Haha, Wow Wow, Sad Sad, Angry Angry
 
Última edición por un moderador:

Usuarios Que Están Viendo Este Tema (Total: 1, Miembros: 0, Invitados: 1)

Quién Leyó Este Tema (Total Miembros: 1)

Arriba