After Earth (2013) 1080p BDRip Dual Latino-Inglés [Subt. Esp] (Ciencia ficción. Acción)

Maestro Revolver

Well-known member
Miembro del Staff
Administrador
Registro
9 Ago 2012
Mensajes
3.567








TÍTULO ORIGINAL: After Earth
AÑO: 2013
DURACIÓN: 100 min.
PAÍS: USA
DIRECTOR: M. Night Shyamalan
GUIÓN: M. Night Shyamalan, Gary Whitta (Historia: Will Smith)
REPARTO: Jaden Smith, Will Smith, Sophie Okonedo, Zoe Kravitz, Kristofer Hivju, Sacha Dhawan, Chris Geere, David Denman, Monika Jolly, Jaden Martin
PRODUCTORA: Sony Pictures / Columbia Pictures / Overbrook Entertainment / Blinding Edge Pictures
GÉNERO: Ciencia ficción. Acción. Aventuras | Futuro postapocalíptico. Supervivencia. Naturaleza
: http://www.imdb.com/title/tt1815862/






Tras una serie de cataclismos que forzaron a la humanidad a abandonar la Tierra, Nova Prime se convirtió en su nuevo hogar. Tras una larga misión fuera de ese planeta, el legendario general Cypher Raige regresa en compañía de su hijo Kitai. En medio de una tormenta de asteroides, la nave se avería y se estrella contra la Tierra, lugar desconocido y peligroso en el que todos los seres vivos no tienen más objetivo que eliminar a los hombres. Como Cypher ha resultado herido, Kitai debe recorrer ese mundo hostil en busca de la baliza de rescate. Siempre ha querido ser un soldado como su padre, y ahora se le presenta la oportunidad de cumplir su deseo.




























La pelicula NO tiene ninguna marca... solo colocamos el nombre de esta web en las capturas






Código:
General
Format                                   : Matroska
Format version                           : Version 2
File size                                : 8.54 GiB
Duration                                 : 1h 40mn
Overall bit rate                         : 12.2 Mbps
Movie name                               : www.club-hd.com
Encoded date                             : UTC 2013-09-21 18:52:25
Writing application                      : mkvmerge v5.7.0 ('The Whirlwind') built on Jul  8 2012 20:08:51
Writing library                          : libebml v1.2.3 + libmatroska v1.3.0

Video
ID                                       : 1
Format                                   : AVC
Format/Info                              : Advanced Video Codec
Format profile                           : High@L4.1
Format settings, CABAC                   : Yes
Format settings, ReFrames                : 5 frames
Codec ID                                 : V_MPEG4/ISO/AVC
Duration                                 : 1h 40mn
Bit rate                                 : 9 436 Kbps
Width                                    : 1 920 pixels
Height                                   : 808 pixels
Display aspect ratio                     : 2.40:1
Frame rate mode                          : Constant
Frame rate                               : 23.976 fps
Color space                              : YUV
Chroma subsampling                       : 4:2:0
Bit depth                                : 8 bits
Scan type                                : Progressive
Bits/(Pixel*Frame)                       : 0.254
Stream size                              : 6.42 GiB (75%)
Title                                    : www.club-hd.com
Writing library                          : x264 core 133 r2334 a3ac64b
Language                                 : English
Default                                  : Yes
Forced                                   : No

Audio #1
ID                                       : 2
Format                                   : AC-3
Format/Info                              : Audio Coding 3
Mode extension                           : CM (complete main)
Format settings, Endianness              : Big
Codec ID                                 : A_AC3
Duration                                 : 1h 40mn
Bit rate mode                            : Constant
Bit rate                                 : 640 Kbps
Channel(s)                               : 6 channels
Channel positions                        : Front: L C R, Side: L R, LFE
Sampling rate                            : 48.0 KHz
Bit depth                                : 16 bits
Compression mode                         : Lossy
Stream size                              : 458 MiB (5%)
Title                                    : www.club-hd.com  >>  Latino AC3 5.1
Language                                 : Spanish
Default                                  : Yes
Forced                                   : No

Audio #2
ID                                       : 3
Format                                   : AC-3
Format/Info                              : Audio Coding 3
Mode extension                           : CM (complete main)
Format settings, Endianness              : Big
Codec ID                                 : A_AC3
Duration                                 : 1h 40mn
Bit rate mode                            : Constant
Bit rate                                 : 640 Kbps
Channel(s)                               : 6 channels
Channel positions                        : Front: L C R, Side: L R, LFE
Sampling rate                            : 48.0 KHz
Bit depth                                : 16 bits
Compression mode                         : Lossy
Stream size                              : 458 MiB (5%)
Title                                    : www.club-hd.com  >>  Inglés AC3 5.1
Language                                 : English
Default                                  : No
Forced                                   : No

Audio #3
ID                                       : 4
Format                                   : DTS
Format/Info                              : Digital Theater Systems
Mode                                     : 16
Format settings, Endianness              : Big
Codec ID                                 : A_DTS
Duration                                 : 1h 40mn
Bit rate mode                            : Constant
Bit rate                                 : 1 509 Kbps
Channel(s)                               : 6 channels
Channel positions                        : Front: L C R, Side: L R, LFE
Sampling rate                            : 48.0 KHz
Bit depth                                : 24 bits
Compression mode                         : Lossy
Stream size                              : 1.05 GiB (12%)
Title                                    : www.club-hd.com  >>  Inglés DTS 5.1
Language                                 : English
Default                                  : No
Forced                                   : No

Text #1
ID                                       : 5
Format                                   : UTF-8
Codec ID                                 : S_TEXT/UTF8
Codec ID/Info                            : UTF-8 Plain Text
Title                                    : Forzados
Language                                 : Spanish
Default                                  : Yes
Forced                                   : No

Text #2
ID                                       : 6
Format                                   : UTF-8
Codec ID                                 : S_TEXT/UTF8
Codec ID/Info                            : UTF-8 Plain Text
Title                                    : Completos
Language                                 : Spanish
Default                                  : No
Forced                                   : No

Menu
00:00:00.000                             : en:00:00:00.000
00:08:52.699                             : en:00:08:52.699
00:15:36.394                             : en:00:15:36.394
00:21:34.793                             : en:00:21:34.793
00:30:50.557                             : en:00:30:50.557
00:36:45.954                             : en:00:36:45.954
00:41:14.430                             : en:00:41:14.430
00:47:06.073                             : en:00:47:06.073
00:52:36.320                             : en:00:52:36.320
00:59:48.585                             : en:00:59:48.585
01:05:25.797                             : en:01:05:25.797
01:11:10.183                             : en:01:11:10.183
01:15:47.334                             : en:01:15:47.334
01:20:17.688                             : en:01:20:17.688
01:24:38.782                             : en:01:24:38.782
01:29:57.392                             : en:01:29:57.392








Enlaces de Mega y Google Drive solo disponibles para Miembros VIP

Compra tu Membresía VIP y apoya a Club-HD!

ATENCIÓN! Tenemos TODO el material de Club-HD disponible por Mega y Google Drive, enlaces 100% activos y online hasta la fecha

Llévate tus cuentas Mega PRO III gratis con tu membresía VIP!
Todos los posts vivos con links de Mega y Google Drive.
Todo el material de Club-HD desbloqueado y sin publicidad.

Click Aquí para más información.



Enlaces de Mega y Google Drive solo disponibles para Miembros VIP

Compra tu Membresía VIP y apoya a Club-HD!

ATENCIÓN! Tenemos TODO el material de Club-HD disponible por Mega y Google Drive, enlaces 100% activos y online hasta la fecha

Llévate tus cuentas Mega PRO III gratis con tu membresía VIP!
Todos los posts vivos con links de Mega y Google Drive.
Todo el material de Club-HD desbloqueado y sin publicidad.

Click Aquí para más información.



Para ver este contenido oculto, debes dar click en una de las siguientes reacciones : Like Like, Love Love, Haha Haha, Wow Wow, Sad Sad, Angry Angry
 
Última edición por un moderador:

HemoAr

Dohko de Libra
Administrador
Uploader
Miembro VIP
Registro
9 Mar 2013
Mensajes
10.597
Ubicación
Rozan
Siii Hurr4hd4nce2 Me di tiempo aun para ponerla a descargar y actualizarla. Ya que apenas hoy temprano habia descomprimido de version en Ingles. UUpssss pero no habia visto el Tamaño :plmfc: Pnsand0 Sera que estara en 720p :rzr_::rzr_:
Bueno esperare entonces. Gracias Master Revolver22 LXR_2LXR_2
 

Usuarios Que Están Viendo Este Tema (Total: 1, Miembros: 0, Invitados: 1)

Quién Leyó Este Tema (Total Miembros: 2)

Arriba