Alice in Wonderland (2010) 3D H-SBS 1080p BDRip Dual Latino-Inglés [Subt. Esp-Ing] (Fantástico)

Maestro Revolver

Well-known member
Miembro del Staff
Administrador
Registro
9 Ago 2012
Mensajes
3.569
Reacciones
59.366
Puntos
113

Reputation:








TÍTULO ORIGINAL: Alice in Wonderland
AÑO: 2010
DURACIÓN: 108 min.
PAÍS: USA
DIRECTOR: Tim Burton
GUIÓN: Linda Woolverton (Novela: Lewis Carroll)
REPARTO: Mia Wasikowska, Johnny Depp, Helena Bonham Carter, Anne Hathaway, Crispin Glover, Matt Lucas, Marton Csokas, Jemma Powell, John Hopkins, Eleanor Gecks, Eleanor Tomlinson
PRODUCTORA: Tim Burton Animation Co. / Walt Disney Productions
GÉNERO: Fantástico. Animación. Aventuras | Secuela. 3-D
http://www.imdb.com/title/tt1014759/
PREMIOS: 2010: 2 Oscars: Mejor dirección artística y vestuario. 3 nominaciones: efectos visuales
2010: Globos de Oro: 3 nominaciones, incluyendo Mejor película comedia o musical
2010: 2 Premios BAFTA: Mejor vestuario y maquillaje. 5 nominaciones






Inspirada en la obra homónima de Lewis Carroll. Alicia (Mia Wasikowska), una joven de 19 años, acude a una mansión victoriana para asistir a una fiesta de la alta sociedad. Cuando está a punto de recibir públicamente una propuesta de matrimonio, sale corriendo tras un conejo blanco y va a parar al País de las Maravillas, un lugar que había visitado diez años antes, aunque ya no lo recuerda. Ese país era un reino pacífico hasta que la Reina Roja (Helena Bonham Carter) derrocó a su hermana, la Reina Blanca (Anne Hathaway), pero las criaturas que viven en él, están dispuestas a rebelarse y esperan contar con la ayuda de Alicia, a la ayudan a recordar su primera visita al fantástico reino.
























La pelicula NO tiene ninguna marca... solo coloque mi nombre de usuario en las capturas






Código:
General
Complete name                            : Alice in Wonderland (2010) 3D H-SBS 1080p BDRip Dual Latino-Inglés [Subt. Esp-Ing].mkv
Format                                   : Matroska
Format version                           : Version 4
File size                                : 8.95 GiB
Duration                                 : 1 h 48 min
Overall bit rate                         : 11.8 Mb/s
Movie name                               : Alice in Wonderland (2010) 3D 1080p Dual
Encoded date                             : UTC 2017-05-04 17:54:56
Writing application                      : mkvmerge v8.5.2 ('Crosses') 64bit
Writing library                          : libebml v1.3.3 + libmatroska v1.4.4

Video
ID                                       : 1
Format                                   : AVC
Format/Info                              : Advanced Video Codec
Format profile                           : High@L4
Format settings                          : CABAC / 4 Ref Frames
Format settings, CABAC                   : Yes
Format settings, Reference frames        : 4 frames
Codec ID                                 : V_MPEG4/ISO/AVC
Duration                                 : 1 h 48 min
Bit rate                                 : 9 000 kb/s
Width                                    : 1 920 pixels
Height                                   : 1 080 pixels
Display aspect ratio                     : 16:9
Frame rate mode                          : Constant
Frame rate                               : 23.976 FPS
Color space                              : YUV
Chroma subsampling                       : 4:2:0
Bit depth                                : 8 bits
Scan type                                : Progressive
Bits/(Pixel*Frame)                       : 0.181
Stream size                              : 6.82 GiB (76%)
Title                                    : Alice in Wonderland (2010) 3D 1080p Dual
Writing library                          : x264 core 98 r1649 c54c47d
Encoding settings                        : cabac=1 / ref=3 / deblock=1:0:0 / analyse=0x3:0x113 / me=hex / subme=7 / psy=1 / psy_rd=1.00:0.00 / mixed_ref=1 / me_range=16 / chroma_me=1 / trellis=1 / 8x8dct=1 / cqm=0 / deadzone=21,11 / fast_pskip=1 / chroma_qp_offset=-2 / threads=3 / sliced_threads=0 / nr=0 / decimate=1 / interlaced=0 / constrained_intra=0 / bframes=3 / b_pyramid=2 / b_adapt=1 / b_bias=0 / direct=1 / weightb=1 / weightp=2 / keyint=250 / keyint_min=25 / scenecut=40 / intra_refresh=0 / rc_lookahead=40 / rc=2pass / mbtree=1 / bitrate=9000 / ratetol=1.0 / qcomp=0.60 / qpmin=10 / qpmax=51 / qpstep=4 / cplxblur=20.0 / qblur=0.5 / ip_ratio=1.40 / aq=1:1.00
Language                                 : English
Default                                  : Yes
Forced                                   : No

Audio #1
ID                                       : 2
Format                                   : AC-3
Format/Info                              : Audio Coding 3
Commercial name                          : Dolby Digital
Codec ID                                 : A_AC3
Duration                                 : 1 h 48 min
Bit rate mode                            : Constant
Bit rate                                 : 640 kb/s
Channel(s)                               : 6 channels
Channel layout                           : L R C LFE Ls Rs
Sampling rate                            : 48.0 kHz
Frame rate                               : 31.250 FPS (1536 SPF)
Compression mode                         : Lossy
Delay relative to video                  : 200 ms
Stream size                              : 497 MiB (5%)
Title                                    : Latino AC3 5.1
Language                                 : Spanish
Service kind                             : Complete Main
Default                                  : Yes
Forced                                   : No

Audio #2
ID                                       : 3
Format                                   : AC-3
Format/Info                              : Audio Coding 3
Commercial name                          : Dolby Digital
Codec ID                                 : A_AC3
Duration                                 : 1 h 48 min
Bit rate mode                            : Constant
Bit rate                                 : 640 kb/s
Channel(s)                               : 6 channels
Channel layout                           : L R C LFE Ls Rs
Sampling rate                            : 48.0 kHz
Frame rate                               : 31.250 FPS (1536 SPF)
Compression mode                         : Lossy
Stream size                              : 497 MiB (5%)
Title                                    : Inglés AC3 5.1
Language                                 : English
Service kind                             : Complete Main
Default                                  : No
Forced                                   : No

Audio #3
ID                                       : 4
Format                                   : DTS ES
Format/Info                              : Digital Theater Systems
Commercial name                          : DTS-ES Matrix
Codec ID                                 : A_DTS
Duration                                 : 1 h 48 min
Bit rate mode                            : Constant
Bit rate                                 : 1 509 kb/s
Channel(s)                               : 6 channels
Channel(s)_Original                      : 7 channels
ChannelLayout_Original                   : C L R Ls Rs Cs LFE
Sampling rate                            : 48.0 kHz
Frame rate                               : 93.750 FPS (512 SPF)
Bit depth                                : 24 bits
Compression mode                         : Lossy
Stream size                              : 1.14 GiB (13%)
Title                                    : Inglés DTS 5.1
Language                                 : English
Default                                  : No
Forced                                   : No

Text #1
ID                                       : 5
Format                                   : VobSub
Muxing mode                              : zlib
Codec ID                                 : S_VOBSUB
Codec ID/Info                            : Picture based subtitle format used on DVDs
Duration                                 : 1 h 40 min
Bit rate                                 : 7 107 b/s
Count of elements                        : 962
Stream size                              : 5.12 MiB (0%)
Title                                    : Latino (Vobsub)
Language                                 : Spanish
Default                                  : No
Forced                                   : No

Text #2
ID                                       : 6
Format                                   : VobSub
Muxing mode                              : zlib
Codec ID                                 : S_VOBSUB
Codec ID/Info                            : Picture based subtitle format used on DVDs
Duration                                 : 1 h 46 min
Bit rate                                 : 8 397 b/s
Count of elements                        : 1127
Stream size                              : 6.37 MiB (0%)
Title                                    : Ingles (Vobsub)
Language                                 : Spanish
Default                                  : No
Forced                                   : No

Text #3
ID                                       : 7
Format                                   : UTF-8
Codec ID                                 : S_TEXT/UTF8
Codec ID/Info                            : UTF-8 Plain Text
Duration                                 : 1 h 40 min
Bit rate                                 : 39 b/s
Count of elements                        : 962
Stream size                              : 29.5 KiB (0%)
Title                                    : Latino (srt)
Language                                 : Spanish
Default                                  : No
Forced                                   : No

Text #4
ID                                       : 8
Format                                   : UTF-8
Codec ID                                 : S_TEXT/UTF8
Codec ID/Info                            : UTF-8 Plain Text
Duration                                 : 1 h 46 min
Bit rate                                 : 44 b/s
Count of elements                        : 1127
Stream size                              : 34.6 KiB (0%)
Title                                    : Ingles (srt)
Language                                 : English
Default                                  : No
Forced                                   : No

Menu
00:00:00.000                             : en:Opening Credits
00:04:24.889                             : en:Alice's History Lesson
00:10:36.886                             : en:In a World of My Own
00:18:13.509                             : en:The White Rabbit
00:24:44.316                             : en:Curiouser and Curiouser
00:28:41.344                             : en:The Bottle on the Table
00:36:51.125                             : en:Through the Keyhole in a Bottle
00:46:15.731                             : en:Alice Meets Twiddledee and Twidledum
00:52:44.786                             : en:The Walrus and the Carpenter
01:04:05.049                             : en:The White Rabbit's House
01:10:02.198                             : en:A Lizard with a Ladder
01:15:36.490                             : en:A Garden of Talking Flowers
01:23:39.264                             : en:All in the Golden Afternoon
01:34:12.688                             : en:Advice From a Caterpillar
01:36:58.354                             : en:More Ups and Downs for Alice
01:40:12.131                             : en:The Chesire Cat



Un agradecimiento muy especial para nuestro amigo clasaase, por agregar los subtítulos en Español e Ingles 3D (VobSub]. 👏








Enlaces de Mega y Fireload solo disponibles para Miembros VIP

Compra tu Membresía VIP y apoya a Club-HD!

ATENCIÓN! Tenemos TODO el material de Club-HD disponible por Mega y Fireload, enlaces 100% activos y online hasta la fecha

Llévate tus cuentas Mega PRO II gratis con tu membresía VIP!
Todos los posts vivos con links de Mega y Fireload.
Todo el material de Club-HD desbloqueado y sin publicidad.

Click Aquí para más información.


Para ver este contenido oculto, debes dar click en una de las siguientes reacciones : Like Like, Love Love, Haha Haha, Wow Wow, Sad Sad, Angry Angry


Para ver este contenido oculto, debes dar click en una de las siguientes reacciones : Like Like, Love Love, Haha Haha, Wow Wow, Sad Sad, Angry Angry
 
Última edición por un moderador:

christian

Well-known member
Registro
27 Ago 2012
Mensajes
4.149
Reacciones
252
Puntos
83

Reputation:

gracias!! es excelente que se publiquen mas contenidos en 3D Desc_g_
 

Yonatan

Admin
Miembro del Staff
Administrador
Registro
27 Ago 2012
Mensajes
1.768
Reacciones
3.730
Puntos
113
Edad
28
Ubicación
Chile, Sexta Región

Reputation:

la descargare para cuando tenga mi tv 3D ojala sigan subiendo peliculas en 3D gracias revolver21 eres groso men xD
 

WILDO

Active member
Registro
13 Sep 2012
Mensajes
378
Reacciones
29
Puntos
28

Reputation:

ooo grasias te pasaste gran aporte ...ojala subas mas peli en 3d . grasias se agradese muchos saludos
 

juank

New member
Registro
27 Ago 2012
Mensajes
149
Reacciones
25
Puntos
0

Reputation:

que chevere gracias
espero que sigan subiendo en 3d porq en mi tv led 3d se ven del p
GRACIAS GRACIAS........
POR UN CASO TIENEN RESIDENT EVIL 4 AFTERLIFE EN 3D SERIA GENIAL LA ESTOYT BUSCANDO PERO NO LA ENCUENTRO
LES AGADESCO UN MONTON POR SUS APORTES
 

VIKTORIUZ

New member
Registro
27 Ago 2012
Mensajes
340
Reacciones
3
Puntos
0

Reputation:

Fantastico!! Genial que sigas aportando peliculas 3d, ya que son dificiles de conseguir !! Gracias!!
 

juan_fornaris

New member
Registro
28 Ago 2012
Mensajes
144
Reacciones
57
Puntos
0

Reputation:

Una joya del 3d

Agradezco enormemente al plantel de administradores del Club el gran esfuerzo que realizan para traernos todos los contenidos en alta definición que está a su alcanze en sus distintas versiones (720p, 1080p y 3D).

… Más allá de la entredicha calidad del libreto y los propios intereses de los estudios Disney por explotar hasta el cansancio los libros del británico Lewis Carroll nos encontramos ante una maravilla visual idealizada por un obsesionado, gótico y sombrío Tim Burton que nos regresa tantos años después al fantástico y exhuberante país de las maravillas.

En palabras de Burton “la meta fué hacer una película atractiva donde pudieras obtener alguna psicología, pero también mantener la clásica naturaleza de Alicia”. Sobre Alicia Burton señaló: “siempre es una chica deambulando de un loco personaje a otro, y nunca sentí realmente ninguna conexión emocional”, para solucionar éste último incoveniente muy poco habitual en el léxico del reconocido director, Burton se inspiró en el poema Jabberwocky como excusa para replantear el imaginario (mundo) y darle algún marco de antecedente emocional que compaginara con sus aspiraciones cinematográficas.

Aprovechando el boom del 3D que meses antes había colocado a Avatar en lo más alto de la taquilla mundial, los estudios Disney no vieron obstáculo alguno para ponerle a Tim en sus manos 200 millones de dólares de presupuesto para que realizara una versión más adulta, gótica y visualmente esplendorosa del fantástico mundo de infratierra. Los resultados como cabría esperarse de un director con las ínfulas de Burton no pudieron ser mejores y el público respondió positivamente al asalto tridimensionalista del creador de Eduardo Manostijeras (más de 1.000 millones de dólares en recaudación mundial).

Tim Burton seleccionó una vez más a su habitual equipo de colaboradores para darle vida a los sueños de la precoz muchachita con Johnny Depp y Helena Bonham Carter (sus actores fetiches) dentro de la planta de actores al que se le adicionó Anne Hathaway (cuyo personaje en la cinta raya la cursilería), Mia Wasikowska y las sensacionales voces de Alan Rickman, Christopher Lee y Timothy Spall. En su equipo artístico contó nuevamente con la diseñadora de vestuario y tres veces ganadora del Oscar, Colleen Atwood; para el diseño de producción y decorados contrató al tándem de Robert Stromberg (que como dato curioso el año anterior había subido al escenario del Kodak a recoger la estatuilla dorada por los escenarios de Avatar) y Karen O’Hara; la partitura musical se la delegó por enésima vez al compositor estadounidense Danny Elfman; la cinematografía estuvo a cargo de Dariusz Wolski; el montaje fue obra de Chris Lebenzon; el maquillaje, peluquería y diseño de prostéticos corrió por cuenta de Debra Coleman, Joel Harlow y Valli O’Reilly; la edición y mezcla de sonido por David Evans, Tom Burns, Steve Boeddeker y William Kaplan.

Detrás del despliegue tecnológico de “Alice in Wonderland” se encuentra el veterano creador de efectos visuales Ken Ralston, considerado uno de los mejores en el oficio, ganador de cuatro premios Oscar y cuatro BAFTA.
Más allá del famoso cuento en el que está inspirada y los millones de seguidores que aglomera por el mundo, más allá de las decenas de películas animadas y de acción real que toman su mundo como contexto narrativo, se encuentra esta obra de Tim Burton realizada con la más vanguardista tecnología que pueda haber. Diseñar la mágica infratierra y todo lo que ella conlleva como su exótica flora y peculiares criaturas supuso para el equipo de ingenieros todo un reto a la hora de plasmar sobre papeles y monitores cada detalle de ese extraño lugar. Para el Jabberwocky, la repúgnate criatura de la reina de corazones, el equipo elaboró un detallado modelo tridimensional sobre el diseño conceptual, que luego fue escaneado para animar la figura en 3D con todos los detalles escultóricos: pliegues, arrugas, venas y demás. Para la batalla final utilizaron un poderoso software conocido como “Masive” con el que crearon el ejército de naipes de la reina Roja y se añadieron otros digitalmente al de la reina Blanca.
El todoterreno CGI y sus infinitas aplicaciones fueron el caballo triunfador para Ralston y su equipo de colaboradores.

Las secuencias del filme que tienen lugar en la era victoriana fueron rodadas en Torpoint y Plymouth (Inglaterra) del 1 de Septiembre al 14 de Octubre de 2010. Otras localidades utilizadas por la producción incluyeron Charlestown en Cornwall y The Barbican. La porción del rodaje que incluyó la inserción del croma (cerca del 90 por ciento del metraje) fue rodado en Sony Pictures Studios en Culver City, California.

A pesar de que Tim Burton fue cuestionado por rodar inicialmente la película en 2D y posterior fue convertida a 3D lo cierto es que este filme explota maravillosamente todas las posibilidades que pueda ofrecer esta revolucionaria tecnología, de hecho ha sido elogiada como una de las mejores jamás filmadas en este formato. La secuencia en la que el águila del ejercito de la reina roja captura a Tweedledum y Tweedledee y los escarba por el bosque de espinas y arboles retorcidos es una de las más impactantes y realistas que se haya conseguido con el 3D.
 

Usuarios Que Están Viendo Este Tema (Total: 1, Miembros: 0, Invitados: 1)

Arriba